Дівчата з Еквестрії. Перепустка за лаштунки для Сансет / My Little Pony: Equestria Girls - Sunset's Backstage Pass (2019) AVC Ukr/Eng | Sub Eng

Нові коментарі

Нова тема   Відповісти
Автор Повідомлення
sergiyko.5 
VIP


З нами з: 25.02.16
Востаннє: 28.10.20
Повідомлень: 3638

2019-11-26 14:18  
Всі одноіменні релізи на трекері

Дівчата з Еквестрії. Перепустка за лаштунки для Сансет / My Little Pony: Equestria Girls - Sunset's Backstage Pass (2019) AVC Ukr/Eng | Sub Eng


Дівчата з Еквестрії. Перепустка за лаштунки для Сансет / My Little Pony: Equestria Girls - Sunset's Backstage Pass (2019) AVC Ukr/Eng | Sub Eng

Жанр: фентезі, пригоди, комедія, сімейний
Країна: США, Ірландія
Кінокомпанія: Hasbro Studios, DHX, Allspark Animation
Режисер: Іші Руделл, Катріна Хедлі

Сюжет:
Нарешті настає відкриття музичного фестивалю імені Старсвірла і семеро подружок збираються здійснити на нього свій гламурпоход! Сансет і Пінкі схвильовані можливістю побачити їх улюблені музичні групи, але еквестрійская магія викликає подобу "Дня бабака", утворюючи тимчасову петлю, через яку Сансет змушена переживати день відкриття фестивалю нескінченно!




Тривалість: 00:44:34
Якість:

Відео: кодек: розмір кадру: 1024 х 576 бітрейт: 900 кб/с
Аудіо 1: мова: українська переклад: професійний дубльований кодек: 2.0ch бітрейт: 192 кб/с [ Stereo ]
Озвучення:
Аудіо 2: мова: англійська переклад: оригінал кодек: 2.0 бітрейт: 384 кб/с
Субтитри: мова: англійська тип: програмні (м'які) формат: *.srt
Про файл:
General
Unique ID : 87842991687742926927902423731493297746 (0x4215F1DF0AB5B66FAFF9CB35A8665E52)
Complete name : D:\Documents\Video\51\rip\My Little Pony.Equestria Girls.Sunset's Backstage Pass.2019..
Format :
Format version : Version 4
File size : 407 MiB
Duration : 44 min 33 s
Overall bit rate : 1 278 kb/s
Movie name : Equestria Girls.Sunset's Backstage Pass rip by sergiyko
Encoded date : UTC 2019-11-26 12:11:33
Writing application : v40.0.0 ('Old Town Road + Pony') 64-bit
Writing library : libebml v1.3.9 + v1.5.2

Video
ID : 1
Format : AVC
Format/Info : Advanced Video Codec
Format profile : [email protected]
Format settings : CABAC / 7 Ref Frames
Format settings, CABAC : Yes
Format settings, Reference : 7 frames
Codec ID : V_MPEG4/ISO/AVC
Duration : 44 min 33 s
Bit rate : 892 kb/s
Width : 1 024 pixels
Height : 576 pixels
Display aspect ratio : 16:9
Frame rate mode : Constant
Frame rate : 23.976 (24000/1001) FPS
Color space : YUV
Chroma subsampling : 4:2:0
Bit depth : 8 bits
Scan type : Progressive
Bits/(Pixel*Frame) : 0.063
Stream size : 284 MiB (70%)
Title : Equestria Girls.Sunset's Backstage Pass
Writing library : core 157 r2970 5493be8
Encoding settings : cabac=1 / ref=7 / deblock=1:0:0 / analyse=0x3:0x133 / me=umh / subme=10 / psy=1 / psy_rd=1.00:0.00 / mixed_ref=1 / me_range=24 / chroma_me=1 / trellis=2 / 8x8dct=1 / cqm=0 / deadzone=21,11 / fast_pskip=1 / chroma_qp_offset=-2 / threads=18 / lookahead_threads=3 / sliced_threads=0 / nr=0 / decimate=1 / interlaced=0 / bluray_compat=0 / constrained_intra=0 / bframes=8 / b_pyramid=2 / b_adapt=2 / b_bias=0 / direct=3 / weightb=1 / open_gop=0 / weightp=2 / keyint=250 / keyint_min=23 / scenecut=40 / intra_refresh=0 / rc_lookahead=60 / rc=crf / mbtree=1 / crf=20.0 / qcomp=0.60 / qpmin=0 / qpmax=69 / qpstep=4 / ip_ratio=1.40 / aq=1:1.00
Language : English
Default : Yes
Forced : No

Audio #1
ID : 2
Format : AC-3
Format/Info : Audio Coding 3
Commercial name : Dolby Digital
Codec ID : A_AC3
Duration : 44 min 33 s
Bit rate mode : Constant
Bit rate : 192 kb/s
Channel(s) : 2 channels
Channel layout : L R
Sampling rate : 48.0 kHz
Frame rate : 31.250 FPS (1536 SPF)
Compression mode : Lossy
Stream size : 61.2 MiB (15%)
Title : DUB 2ch | ПлюсПлюс
Language : Ukrainian
Service kind : Complete Main
Default : Yes
Forced : Yes

Audio #2
ID : 3
Format : AC-3
Format/Info : Audio Coding 3
Commercial name : Dolby Digital
Codec ID : A_AC3
Duration : 44 min 33 s
Bit rate mode : Constant
Bit rate : 192 kb/s
Channel(s) : 2 channels
Channel layout : L R
Sampling rate : 48.0 kHz
Frame rate : 31.250 FPS (1536 SPF)
Compression mode : Lossy
Stream size : 61.2 MiB (15%)
Title : Original
Language : English
Service kind : Complete Main
Default : No
Forced : No

Text
ID : 4
Format :
Codec ID : S_TEXT/
Codec ID/Info : Advanced Sub Station Alpha
Duration : 44 min 10 s
Bit rate : 124 b/s
Count of elements : 731
Compression mode : Lossless
Stream size : 40.1 KiB (0%)
Language : English
Default : No
Forced : No
Скріншоти:


Автор запису/зведення: sergiyko


 Трекер:    Зареєстрований   

Завантажити / скачати мультфільм українською



відео для новачків



 Зареєстрований:   2019-11-26 14:18
 Розмір:   407 MB 
 Оцінка мультфільму:   9.8/10 (Голосів: 11)
   
Ваш часовий пояс: GMT + 2 Години

Нова тема   Відповісти