Спадковість / Hereditary (2018)

Нові коментарі

Нова тема   Відповісти
Автор Повідомлення
Anonymous 







2019-11-25 09:38  
Спадковість / Hereditary (2018)

Спадковість / Hereditary (2018)
Альтернативні українські та оригінальні постери:









Жанр: жахи, трилер, драма, детектив
Країна: США



Кінокомпанія: PalmStar Media
Режисер: Арі Астер / Ari Aster
Актори: Тоні Коллетт / Toni Collette, Ґебріел Бірн / Gabriel Byrne, Алекс Вулф / Alex Wolff, Міллі Шапіро / Milly Shapiro, Енн Дауд / Ann Dowd, Меллорі Бехтел / Mallory Bechtel, Джейк Браун / Jake Brown, Закарі Артур / Zachary Arthur, Остін Р. Грант / Austin R. Grant, Марк Блокович / Mark Blockovich, Джон Форкер / John Forker та інші

Сюжет:
Коли Еллен йде з життя, її рідні доньки починають поступово дізнаватися і розгадувати жахливі таємниці свого походження. І чим більше вони дізнаються, тим сильніше бажання змінити свою зловісну долю, яка дісталася їм у спадок.
Офіційний український трейлер:


Рейтинг MPAA: R - особам до 17 років обов'язкова присутність батьків або дорослого опікуна
Вікова категорія: 16+

Тривалість: 02:07:25
Якість:
Відео:
кодек:
розмір кадру: 704х352
бітрейт: 1437 кб/с

Аудіо:
мова: українська
переклад: багатоголосий закадровий
кодек: 2.0
бітрейт: 192 кб/с
Info
Код:
General
Complete name               : Hereditary (2018) [Ukr] [Hurtom].avi
Format                      : AVI
Format/Info                 : Audio Video Interleave
File size                   : 1.46 GiB
Duration                    : 2 h 7 min
Overall bit rate            : 1 638 kb/s
Movie name                  : Спадковість / Hereditary (2018) [Ukr] [Hurtom]
Writing application         : VirtualDubModUkr 1.5.10.2 (build 2542/release)
Writing library             : VirtualDubMod build 2542/release

Video
ID                          : 0
Format                      : MPEG-4 Visual
Format profile              : Advanced [email protected]
Format settings             : BVOP1 / Custom Matrix
Format settings, BVOP       : 1
Format settings, QPel       : No
Format settings, GMC        : No warppoints
Format settings, Matrix     : Custom
Codec ID                    :
Codec ID/Hint               :
Duration                    : 2 h 7 min
Bit rate                    : 1 437 kb/s
Width                       : 704 pixels
Height                      : 352 pixels
Display aspect ratio        : 2.000
Frame rate                  : 23.976 (24000/1001) FPS
Color space                 : YUV
Chroma subsampling          : 4:2:0
Bit depth                   : 8 bits
Scan type                   : Progressive
Compression mode            : Lossy
Bits/(Pixel*Frame)          : 0.242
Stream size                 : 1.28 GiB (88%)
Writing library             : 73

Audio
ID                          : 1
Format                      : AC-3
Format/Info                 : Audio Coding 3
Commercial name             : Dolby Digital
Codec ID                    : 2000
Duration                    : 2 h 7 min
Bit rate mode               : Constant
Bit rate                    : 192 kb/s
Channel(s)                  : 2 channels
Channel layout              : L R
Sampling rate               : 48.0 kHz
Frame rate                  : 31.250 FPS (1536 SPF)
Compression mode            : Lossy
Stream size                 : 175 MiB (12%)
Alignment                   : Split across interleaves
Interleave, duration        : 42  ms (1.00 video frame)
Interleave, preload duratio : 500  ms
Title                       : Ukr MVO [Novyj]
Service kind                : Complete Main




Джерело: &
Подяка за українську доріжку Sando7, Parzival, kinaxem, за постер подяка mrgalser'у.


 Трекер:    Зареєстрований   

Завантажити / скачати фільм українською



відео для новачків



 Зареєстрований:   2019-11-25 11:03
 Розмір:   1.46 GB 
 Оцінка фільму:   8.4/10 (Голосів: 17)
   
Інші релізи
   Спадковість / Hereditary (2018) Remux 1080p Ukr/Eng | Sub Ukr/Eng antik_2008  8 / 0   34.23 GB   2019-11-26 13:48 
   Спадковість / Hereditary (2018) 720p Ukr/Eng | Sub Ukr/Eng igor911  20 / 0   5.01 GB   2019-11-25 09:14 
   Спадковість / Hereditary (2018) 1080p Ukr/Eng | Sub Ukr/Eng ssTAss  14 / 0   10.01 GB   2019-11-24 22:16 
   Спадковість / Hereditary (2018) AVC Ukr/Eng | Sub Ukr/Eng igor911  21 / 0   2.36 GB   2019-11-24 17:05 
Parzival 
Новенький


З нами з: 15.05.18
Востаннє: 11.12.19
Повідомлень: 6

2019-11-25 14:17  
Anonymous написано:
багатоголосий закадровий

Судячи з якості - це озвучення, яке було в кінопрокаті

mosypan 
Оцифрування книг Гуртом
Оцифрування книг Гуртом


З нами з: 03.03.09
Востаннє: 10.12.19
Повідомлень: 342

2019-11-29 21:42  
Доволі моторошний фільм. Начебто нічого незвичайного в сюжеті, але виконання добре. Якісний містичний трилер-жах.
DROMON.UA 
Свій


З нами з: 07.07.12
Востаннє: 10.12.19
Повідомлень: 86

2019-12-01 19:39  
Я витратив 2 години вихідної суботи не просто безглуздо, а злочинно! Краще б раніше ліг спати. Оцінка відповідна.
hhhhhh1 
Новенький


З нами з: 12.11.15
Востаннє: 09.12.19
Повідомлень: 6

2019-12-01 20:05  
4/10
Ваш часовий пояс: GMT + 2 Години

Нова тема   Відповісти