Спадковість / Hereditary (2018) 1080p Ukr/Eng | Sub Ukr/Eng

Нові коментарі

Нова тема   Відповісти
Автор Повідомлення
Anonymous 







2019-11-24 23:16  
Спадковість / Hereditary (2018) 1080p Ukr/Eng | Sub Ukr/Eng

Інші постери:





Жанр: драма, жахи, трилер, детектив
Країна: США



Кінокомпанія: PalmStar Media
Режисер: Арі Астер / Ari Aster
Актори: Тоні Коллетт / Toni Collette, Ґебріел Бірн / Gabriel Byrne, Алекс Вулф / Alex Wolff, Міллі Шапіро / Milly Shapiro, Енн Дауд / Ann Dowd, Меллорі Бехтел / Mallory Bechtel, Джейк Браун / Jake Brown, Закарі Артур / Zachary Arthur, Остін Р. Грант / Austin R. Grant, Марк Блокович / Mark Blockovich, Джон Форкер / John Forker та інші

Сюжет:
Коли Еллен йде з життя, її рідні доньки починають поступово дізнаватися і розгадувати жахливі таємниці свого походження. І чим більше вони дізнаються, тим сильніше бажання змінити свою зловісну долю, яка дісталася їм у спадок.


Тривалість: 02:07:25
Якість:
Відео:
кодек:
розмір кадру: 1920 х 960
бітрейт: 9543 кб/с

Аудіо # 1:
мова: українська
переклад: багатоголосий закадровий
кодек: 2.0
бітрейт: 192 кб/с

Аудіо # 2:
мова: англійська
переклад: оригінал
кодек: 5.1
бітрейт: 1509 кб/с

Джерело озвучення:

(за запис з ТБ дякуємо пану Parzival)

Субтитри:
мова: українська
тип: програмні (м'які)
формат: *.srt
переклад: любительський, імовірно з російської - JoRi, GT [спільнота SubAutumn], редагування/коригування - igor911

Субтитри:
мова: англійська
тип: програмні (м'які)
формат: *.srt
Info
Код:
General
Unique ID                                : 170179550090457518619523405016817999193 (0x8007639EF38F4E775DCD3C5EA4A41D59)
Complete name                            : Hereditary (2018) 1080p [UKR_ENG] [Hurtom].
Format                                   :
Format version                           : Version 4
File size                                : 10.0 GiB
Duration                                 : 2 h 7 min
Overall bit rate                         : 11.2 Mb/s
Movie name                               : Спадковість (2018)
Encoded date                             : UTC 2019-11-24 18:42:43
Writing application                      : v30.1.0 ('Forever And More') 64-bit
Writing library                          : libebml v1.3.6 + v1.4.9
Cover                                    : Yes
Attachments                              : cover.jpg / cover.jpg

Video
ID                                       : 1
Format                                   : AVC
Format/Info                              : Advanced Video Codec
Format profile                           : [email protected]
Format settings                          : CABAC / 4 Ref Frames
Format settings, CABAC                   : Yes
Format settings, ReFrames                : 4 frames
Codec ID                                 : V_MPEG4/ISO/AVC
Duration                                 : 2 h 7 min
Bit rate                                 : 9 543 kb/s
Width                                    : 1 920 pixels
Height                                   : 960 pixels
Display aspect ratio                     : 2.000
Frame rate mode                          : Constant
Frame rate                               : 23.976 (24000/1001) FPS
Color space                              : YUV
Chroma subsampling                       : 4:2:0
Bit depth                                : 8 bits
Scan type                                : Progressive
Bits/(Pixel*Frame)                       : 0.216
Stream size                              : 8.49 GiB (85%)
Writing library                          : core 157 r2932 303c484
Encoding settings                        : cabac=1 / ref=4 / deblock=1:-3:-3 / analyse=0x3:0x113 / me=umh / subme=8 / psy=1 / psy_rd=1.00:0.00 / mixed_ref=1 / me_range=16 / chroma_me=1 / trellis=1 / 8x8dct=1 / cqm=0 / deadzone=21,11 / fast_pskip=1 / chroma_qp_offset=-2 / threads=24 / lookahead_threads=4 / sliced_threads=0 / nr=0 / decimate=1 / interlaced=0 / bluray_compat=0 / constrained_intra=0 / bframes=3 / b_pyramid=2 / b_adapt=1 / b_bias=0 / direct=3 / weightb=1 / open_gop=0 / weightp=2 / keyint=250 / keyint_min=23 / scenecut=40 / intra_refresh=0 / rc_lookahead=50 / rc=2pass / mbtree=1 / bitrate=9543 / ratetol=1.0 / qcomp=0.60 / qpmin=0 / qpmax=69 / qpstep=4 / cplxblur=20.0 / qblur=0.5 / ip_ratio=1.40 / aq=1:1.00
Language                                 : English
Default                                  : Yes
Forced                                   : No

Audio #1
ID                                       : 2
Format                                   : AC-3
Format/Info                              : Audio Coding 3
Commercial name                          : Dolby Digital
Codec ID                                 : A_AC3
Duration                                 : 2 h 7 min
Bit rate mode                            : Constant
Bit rate                                 : 192 kb/s
Channel(s)                               : 2 channels
Channel layout                           : L R
Sampling rate                            : 48.0 kHz
Frame rate                               : 31.250 FPS (1536 SPF)
Bit depth                                : 16 bits
Compression mode                         : Lossy
Stream size                              : 175 MiB (2%)
Language                                 : Ukrainian
Service kind                             : Complete Main
Default                                  : Yes
Forced                                   : Yes

Audio #2
ID                                       : 3
Format                                   :
Format/Info                              : Digital Theater Systems
Codec ID                                 : A_DTS
Duration                                 : 2 h 7 min
Bit rate mode                            : Constant
Bit rate                                 : 1 509 kb/s
Channel(s)                               : 6 channels
Channel layout                           : C L R Ls Rs LFE
Sampling rate                            : 48.0 kHz
Frame rate                               : 93.750 FPS (512 SPF)
Bit depth                                : 24 bits
Compression mode                         : Lossy
Stream size                              : 1.34 GiB (13%)
Language                                 : English
Default                                  : No
Forced                                   : No

Text #1
ID                                       : 4
Format                                   : UTF-8
Codec ID                                 : S_TEXT/UTF8
Codec ID/Info                            : UTF-8 Plain Text
Duration                                 : 2 h 0 min
Bit rate                                 : 55 b/s
Count of elements                        : 1017
Stream size                              : 48.6 KiB (0%)
Language                                 : Ukrainian
Default                                  : No
Forced                                   : No

Text #2
ID                                       : 5
Format                                   : UTF-8
Codec ID                                 : S_TEXT/UTF8
Codec ID/Info                            : UTF-8 Plain Text
Duration                                 : 2 h 0 min
Bit rate                                 : 33 b/s
Count of elements                        : 1014
Stream size                              : 29.4 KiB (0%)
Language                                 : English
Default                                  : No
Forced                                   : No

Menu
00:00:00.000                             : en:00:00:00.000
00:06:03.321                             : en:00:06:03.321
00:13:34.147                             : en:00:13:34.147
00:23:01.130                             : en:00:23:01.130
00:26:31.173                             : en:00:26:31.173
00:34:57.762                             : en:00:34:57.762
00:40:56.496                             : en:00:40:56.496
00:47:23.090                             : en:00:47:23.090
00:54:34.396                             : en:00:54:34.396
01:04:02.881                             : en:01:04:02.881
01:08:55.631                             : en:01:08:55.631
01:19:35.854                             : en:01:19:35.854
01:25:09.396                             : en:01:25:09.396
01:32:50.315                             : en:01:32:50.315
01:40:01.412                             : en:01:40:01.412
01:53:21.378                             : en:01:53:21.378

Скріншоти





Джерело:
Подяка за постер пану mrgalser


 Трекер:    Зареєстрований   

Завантажити / скачати фільм українською



відео для новачків



 Зареєстрований:   2019-11-24 23:16
 Розмір:   10.01 GB 
 Оцінка фільму:   7.9/10 (Голосів: 8)
   
Інші релізи
   Спадковість / Hereditary (2018) Remux 1080p Ukr/Eng | Sub Ukr/Eng antik_2008  1 / 0   34.23 GB   2019-11-26 14:48 
   Спадковість / Hereditary (2018) igor911  7 / 0   1.46 GB   2019-11-25 12:03 
   Спадковість / Hereditary (2018) 720p Ukr/Eng | Sub Ukr/Eng igor911  2 / 0   5.01 GB   2019-11-25 10:14 
   Спадковість / Hereditary (2018) AVC Ukr/Eng | Sub Ukr/Eng igor911  3 / 0   2.36 GB   2019-11-24 18:05 
mrgalser 
Частий відвідувач


З нами з: 19.12.18
Востаннє: 25.09.20
Повідомлень: 34

2019-11-25 14:50  
Anonymous 







2019-11-25 16:21  
mrgalser написано:
Постер

Дякую, змінив.

Akio Furukawa 
Свій


З нами з: 02.11.19
Востаннє: 25.09.20
Повідомлень: 106

2019-11-30 01:49  
Основа тематики доволі цікава й свіжа — психічно хворі, що вдаються до спіритизму та окультизму взагалі. Проте розкрити ніц не вдалося й навіть не схоже на якісь реальні потуги. Розвиток подій вкрай млявий, нудьга від перегляду може й приспати. У кожній визначній сюжетній події самі кліше й стереотипи. Розв'язка, хоча й дещо неочікувана,
але…
автори вирішили нам піднести банальну окультну секту.
2/10

Ваш часовий пояс: GMT + 2 Години

Нова тема   Відповісти