Пограбування / Heist (2001) AVC 3xUkr/Eng | Sub Eng

Нові коментарі

Нова тема   Відповісти
Автор Повідомлення
Arsenfpu 
Відео Гуртом - фільмокрай
Відео Гуртом - фільмокрай


З нами з: 30.04.09
Востаннє: 09.12.19
Повідомлень: 6285

2019-11-24 21:29  
Пограбування / Heist (2001) AVC 3xUkr/Eng | Sub Eng

Пограбування / Heist (2001) AVC 3xUkr/Eng | Sub Eng


Жанр: бойовик, кримінальний, драма
Країна: США-Канада



Кінокомпанія: Morgan Creek Productions, Franchise Pictures
Режисер: Девід Мамет
Актори: Джин Гекмен, Дені ДеВіто, Делрой Ліндо, Сем Рокуел, Ребека Піджен, Рікі Джей, Патті ЛюПон

Сюжет:
У Джо Мура є все — красива молода дружина, гроші, що йому винен суперник і робота, яку він любить. Він — злодій. Його робота накривається мідним тазом тоді, коли його захоплюють зненацька за допомогою охоронної камери. Суперник Мура, Бергман шантажує його, вимагаючи пробачити борг, а його дружина вирушає до новачка — друга Бергмана. Мур, його партнер, Бобі Блан і їх зв'язковий Пінкі Пінкус вимушені зібрати команду, яка зробить пограбування за замовленням Бергмана, і яке стане останнім в кар'єрі Мура. Чи здасть Бергман Мура поліції? Чи повернеться до Мура дружина? Чи вийдуть сухими з води Блан і Пінкус? Кому можна вірити, а хто зрадить? Чи не буде хто-небудь збрехавши одного дня, брехати в черговий раз? І нарешті, хто сміятиметься останнім?


Тривалість: 01:49:02
Якість:
Відео:
кодек:
розмір кадру: 1 024 х 560
бітрейт: 2 499 кб/с

Аудіо # 1:
мова: українська
переклад: двоголосий закадровий (з 5.1)
кодек: 2.0
бітрейт: 192 кб/с

Аудіо # 2:
мова: українська
переклад: багатоголосий закадровий
кодек: 2.0
бітрейт: 192 кб/с

Аудіо # 3:
мова: українська
переклад: двоголосий закадровий (з 5.1)
кодек: 2.0
бітрейт: 192 кб/с

Аудіо # 4:
мова: англійська
переклад: оригінал
кодек: 2.0
бітрейт: 192 кб/с

Субтитри:
мова: англійська
тип: програмні (м'які)
формат: *.srt
Про файл
General
Unique ID : 33019631278567524983262333997762241507 (0x18D759838710990387140FE2449C63E3)
Complete name : C:\Heist (2001) [3xUkr,Eng] AVC [Hurtom].
Format :
Format version : Version 4 / Version 2
File size : 2.49 GiB
Duration : 1 h 49 min
Overall bit rate : 3 269 kb/s
Movie name : Пограбування / Heist (2001)
Encoded date : UTC 2019-11-24 18:08:23
Writing application : v21.0.0 ('Tardigrades Will Inherit The Earth') 32-bit
Writing library : libebml v1.3.5 + v1.4.8
Cover : Yes
Attachments : cover.jpg

Video
ID : 1
Format : AVC
Format/Info : Advanced Video Codec
Format profile : [email protected]
Format settings, CABAC : Yes
Format settings, ReFrames : 4 frames
Codec ID : V_MPEG4/ISO/AVC
Duration : 1 h 49 min
Bit rate : 2 499 kb/s
Width : 1 024 pixels
Height : 560 pixels
Display aspect ratio : 1.85:1
Frame rate mode : Constant
Frame rate : 24.000 FPS
Color space : YUV
Chroma subsampling : 4:2:0
Bit depth : 8 bits
Scan type : Progressive
Bits/(Pixel*Frame) : 0.182
Stream size : 1.90 GiB (76%)
Writing library : core 157 r2935 545de2f
Encoding settings : cabac=1 / ref=3 / deblock=1:-1:-1 / analyse=0x3:0x113 / me=hex / subme=7 / psy=1 / psy_rd=1.00:0.15 / mixed_ref=1 / me_range=16 / chroma_me=1 / trellis=1 / 8x8dct=1 / cqm=0 / deadzone=21,11 / fast_pskip=1 / chroma_qp_offset=-3 / threads=12 / lookahead_threads=2 / sliced_threads=0 / nr=0 / decimate=1 / interlaced=0 / bluray_compat=0 / constrained_intra=0 / bframes=3 / b_pyramid=2 / b_adapt=1 / b_bias=0 / direct=1 / weightb=1 / open_gop=0 / weightp=2 / keyint=240 / keyint_min=24 / scenecut=40 / intra_refresh=0 / rc_lookahead=40 / rc=2pass / mbtree=1 / bitrate=2499 / ratetol=1.0 / qcomp=0.60 / qpmin=0 / qpmax=69 / qpstep=4 / cplxblur=20.0 / qblur=0.5 / ip_ratio=1.40 / aq=1:1.00
Default : Yes
Forced : No

Audio #1
ID : 2
Format : AC-3
Format/Info : Audio Coding 3
Mode extension : CM (complete main)
Format settings, Endianness : Big
Codec ID : A_AC3
Duration : 1 h 49 min
Bit rate mode : Constant
Bit rate : 192 kb/s
Channel(s) : 2 channels
Channel positions : Front: L R
Sampling rate : 48.0 kHz
Frame rate : 31.250 FPS (1536 spf)
Compression mode : Lossy
Stream size : 150 MiB (6%)
Title : ТВІ
Language : Ukrainian
Default : Yes
Forced : Yes

Audio #2
ID : 3
Format : AC-3
Format/Info : Audio Coding 3
Mode extension : CM (complete main)
Format settings, Endianness : Big
Codec ID : A_AC3
Duration : 1 h 49 min
Bit rate mode : Constant
Bit rate : 192 kb/s
Channel(s) : 2 channels
Channel positions : Front: L R
Sampling rate : 48.0 kHz
Frame rate : 31.250 FPS (1536 spf)
Compression mode : Lossy
Stream size : 150 MiB (6%)
Title : amc
Language : Ukrainian
Default : No
Forced : No

Audio #3
ID : 4
Format : AC-3
Format/Info : Audio Coding 3
Mode extension : CM (complete main)
Format settings, Endianness : Big
Codec ID : A_AC3
Duration : 1 h 49 min
Bit rate mode : Constant
Bit rate : 192 kb/s
Channel(s) : 2 channels
Channel positions : Front: L R
Sampling rate : 48.0 kHz
Frame rate : 31.250 FPS (1536 spf)
Compression mode : Lossy
Stream size : 150 MiB (6%)
Title : КІНО
Language : Ukrainian
Default : No
Forced : No

Audio #4
ID : 5
Format : AC-3
Format/Info : Audio Coding 3
Mode extension : CM (complete main)
Format settings, Endianness : Big
Codec ID : A_AC3
Duration : 1 h 49 min
Bit rate mode : Constant
Bit rate : 192 kb/s
Channel(s) : 2 channels
Channel positions : Front: L R
Sampling rate : 48.0 kHz
Frame rate : 31.250 FPS (1536 spf)
Compression mode : Lossy
Stream size : 150 MiB (6%)
Language : English
Default : No
Forced : No

Text
ID : 6
Format : UTF-8
Codec ID : S_TEXT/UTF8
Codec ID/Info : UTF-8 Plain Text
Duration : 1 h 41 min
Bit rate : 61 b/s
Count of elements : 1684
Stream size : 45.9 KiB (0%)
Language : English
Default : Yes
Forced : No
Скріншоти














Джерело:
За українські доріжки дякую п. bodia87, drop_plz, kryk-v.ya.
За постер дякую пану rooster
Особиста оцінка: не дивився


Срібний реліз (на рейтинг впливає 50% завантаженого)
 Трекер:    Зареєстрований   

Завантажити / скачати фільм українською



відео для новачків



 Зареєстрований:   2019-11-24 21:29
 Розмір:   2.49 GB 
 Оцінка фільму:   9.8/10 (Голосів: 8)
   
Інші релізи
   Пограбування / Heist (2001) 720p 3xUkr/Eng | Sub Eng igor911  1 / 0   4.1 GB   2019-06-14 10:00 
   Пограбування / Heist (2001) 3xUkr/Eng drop_plz  5 / 0   2.16 GB   2019-06-13 21:25 
   Пограбування / Heist (2001) AVC 2xUkr/Eng | Sub Eng bodia87  2 / 0   2.83 GB   2013-03-10 20:59 
Ваш часовий пояс: GMT + 2 Години

Нова тема   Відповісти