Земля до початку часів 6. Таємниця Скелі Завра / The Land Before Time VI: The Secret of Saurus Rock (1998) -AVC Ukr/Eng

Нові коментарі

Нова тема   Відповісти
Автор Повідомлення
sergiyko.5 
VIP


З нами з: 25.02.16
Востаннє: 22.10.20
Повідомлень: 3602

2019-11-24 14:42  
Всі одноіменні релізи на трекері

Земля до початку часів 6. Таємниця Скелі Завра / The Land Before Time VI: The Secret of Saurus Rock (1998) -AVC Ukr/Eng


Земля до початку часів 6. Таємниця Скелі Завра / The Land Before Time VI: The Secret of Saurus Rock (1998) -AVC Ukr/Eng

Жанр: мультфільм, пригодницький, сімейний
Країна: США
Кінокомпанія: Universal Cartoon Studios
Режисер: Чарльз Гросвенор

Сюжет:
На краю Великої Долини височіє загадкова Скеля Заврів. Легенди свідчать, що саме вона захищає жителів долини від зла. Розказують також про безстрашного героя — Самотнього Динозавра, який багато років тому відстояв Велику Долину і врятував її від лютих хижаків Гострозубів. Але чи існував він насправді? Нещодавно в околицях Великої Долини з’явився дивний динозавр, на ім'я Док, з довгою шиєю і сильним хвостом. Наш герой Вухолапка упевнений, що Док і є відважний Самотній Динозавр. Чи це так? Компанія непосидючих малюків вже вирушила в похід до Скелі Заврів, щоб дізнатися всю правду.




Тривалість: 01:13:00
Якість:

Відео: кодек: розмір кадру: 720 х 552 бітрейт: 1500 кб/с
Аудіо # 1: мова: українська переклад: професійний дубльований кодек: 2.0 бітрейт: 192 кб/с
Озвучення:
Аудіо # 2: мова: англійська переклад: оригінал кодек: 2.0 бітрейт: 448 кб/с
Про файл:
General
Unique ID : 205401320931581825992602191748140891885 (0x9A86DAFF6B3AE1400241391F84BBFEED)
Complete name : D:\Documents\Torrents\MULT\The Land Before Time 6.The Secret of Saurus Rock.1998..
Format :
Format version : Version 4
File size : 1.07 GiB
Duration : 1 h 13 min
Overall bit rate : 2 089 kb/s
Movie name : The Land Before Time 6 by sergiyko
Encoded date : UTC 2019-11-24 11:36:47
Writing application : v39.0.0 ('In The Waiting Line') 64-bit
Writing library : libebml v1.3.9 + v1.5.2
Cover : Yes
Attachments : cover.jpeg

Video
ID : 1
Format : AVC
Format/Info : Advanced Video Codec
Format profile : [email protected]
Format settings : CABAC / 11 Ref Frames
Format settings, CABAC : Yes
Format settings, Reference : 11 frames
Format settings, GOP : M=2, N=24
Codec ID : V_MPEG4/ISO/AVC
Duration : 1 h 13 min
Bit rate : 1 446 kb/s
Width : 720 pixels
Height : 536 pixels
Display aspect ratio : 4:3
Frame rate mode : Constant
Frame rate : 25.000 FPS
Color space : YUV
Chroma subsampling : 4:2:0
Bit depth : 8 bits
Scan type : Progressive
Bits/(Pixel*Frame) : 0.150
Stream size : 755 MiB (69%)
Title : The Land Before Time 6
Language : English
Default : Yes
Forced : No

Audio #1
ID : 2
Format : AC-3
Format/Info : Audio Coding 3
Commercial name : Dolby Digital
Codec ID : A_AC3
Duration : 1 h 13 min
Bit rate mode : Constant
Bit rate : 192 kb/s
Channel(s) : 2 channels
Channel layout : L R
Sampling rate : 48.0 kHz
Frame rate : 31.250 FPS (1536 SPF)
Bit depth : 16 bits
Compression mode : Lossy
Delay relative to video : -200 ms
Stream size : 100 MiB (9%)
Title : DUB | К1
Language : Ukrainian
Service kind : Complete Main
Default : Yes
Forced : Yes

Audio #2
ID : 3
Format : AC-3
Format/Info : Audio Coding 3
Commercial name : Dolby Digital
Codec ID : A_AC3
Duration : 1 h 13 min
Bit rate mode : Constant
Bit rate : 448 kb/s
Channel(s) : 2 channels
Channel layout : L R
Sampling rate : 48.0 kHz
Frame rate : 31.250 FPS (1536 SPF)
Bit depth : 16 bits
Compression mode : Lossy
Delay relative to video : -200 ms
Stream size : 234 MiB (21%)
Title : Original
Language : English
Service kind : Complete Main
Default : No
Forced : No
Скріншоти:


Запис/зведення: sergiyko


Срібний реліз (на рейтинг впливає 50% завантаженого)
 Трекер:    Зареєстрований   

Завантажити / скачати мультфільм українською



відео для новачків



 Зареєстрований:   2019-11-24 14:42
 Розмір:   1.07 GB 
 Оцінка мультфільму:   9.9/10 (Голосів: 11)
   
MutuLI 
Відео Гуртом - фільмокрай
Відео Гуртом - фільмокрай


З нами з: 08.03.09
Востаннє: 21.10.20
Повідомлень: 1960

2019-11-24 20:34  
Треба було додати ще озвучення з нового каналу https://toloka.to/t4209
Ваш часовий пояс: GMT + 2 Години

Нова тема   Відповісти