Медовий Місяць / Elizabeth Harvest (2018) Remux 1080p Ukr/Eng | Sub Eng

Нові коментарі

Нова тема   Відповісти
Автор Повідомлення
Anonymous 







2019-11-24 14:18  
Медовий Місяць / Elizabeth Harvest (2018) Remux 1080p Ukr/Eng | Sub Eng



Жанр: трилер, фантастика
Країна: США





Кінокомпанія: Voltage Pictures, Automatik Entertainment, Motion Picture Capital
Режисер: Джеймс Марш
Актори: Еббі Лі, Кьяран Гайндс, Карла Ґуджіно, Меттью Бірд, Ділан Бейкер та інші

Сюжет:
Юна та прекрасна Елізабет сама визнає, що інтелект – це не її сильна сторона. Вона завжди мріяла про щасливу сім'ю у затишному будинку і здається її мрії починають збуватися. Вона виходить заміж за Генрі, вже не молодого, проте дуже лагідного з нею науковця. Чоловік привозить молоду дружину у величезний маєток. Тут їй дозволено все, вона тут повноправна хазяйка. Та є одна заборона – Елізабет не можна заходити в одну з кімнат у підвалі. Там розміщується лабораторія її чоловіка і те, над чим він працює має назавжди залишитися таємницею. Проте цікавість бере верх і дівчина все ж відкриває двері.


Тривалість: 01:48:51
Якість: Remux 1080p

Відео:
кодек:
розмір кадру: 1920x1080
бітрейт: ~24.7 мб/с

Аудіо # 1:
мова: українська
переклад: багатоголосий закадровий | студія AAA-Sound
кодек: 2.0 [stereo]
бітрейт: 192 кб/с

Аудіо # 2:
мова: англійська
переклад: оригінал
кодек: 5.1
бітрейт: 448 кб/с

Аудіо # 3:
мова: англійська
переклад: оригінал
кодек: -HD Master 5.1
бітрейт: 3078 кб/с

Субтитри (Full, SHD):
мова: англійська
тип: програмні (м'які)
формат: *.srt
Info
Код:
General
Complete name                            : Elizabeth Harvest (2018) BDRemuix 1080p [UKR_ENG] [ViDeO_Hurtom].
Format                                   :
Format version                           : Version 4
File size                                : 21.6 GiB
Duration                                 : 1 h 48 min
Overall bit rate mode                    : Variable
Overall bit rate                         : 28.4 Mb/s
Encoded date                             : UTC 2019-11-24 10:21:38
Writing application                      : v30.1.0 ('Forever And More') 64-bit
Writing library                          : libebml v1.3.6 + v1.4.9
Cover                                    : Yes
Attachments                              : cover.jpg

Video
ID                                       : 1
Format                                   : AVC
Format/Info                              : Advanced Video Codec
Format profile                           : [email protected]
Format settings                          : CABAC / 4 Ref Frames
Format settings, CABAC                   : Yes
Format settings, RefFrames               : 4 frames
Codec ID                                 : V_MPEG4/ISO/AVC
Duration                                 : 1 h 48 min
Bit rate mode                            : Variable
Bit rate                                 : 24.7 Mb/s
Maximum bit rate                         : 33.5 Mb/s
Width                                    : 1 920 pixels
Height                                   : 1 080 pixels
Display aspect ratio                     : 16:9
Frame rate mode                          : Constant
Frame rate                               : 23.976 (24000/1001) FPS
Color space                              : YUV
Chroma subsampling                       : 4:2:0
Bit depth                                : 8 bits
Scan type                                : Progressive
Bits/(Pixel*Frame)                       : 0.497
Stream size                              : 18.8 GiB (87%)
Title                                    : Elizabeth.Harvest.2018.Remux 1080p.funtden
Default                                  : Yes
Forced                                   : No

Audio #1
ID                                       : 2
Format                                   : AC-3
Format/Info                              : Audio Coding 3
Commercial name                          : Dolby Digital
Codec ID                                 : A_AC3
Duration                                 : 1 h 48 min
Bit rate mode                            : Constant
Bit rate                                 : 192 kb/s
Channel(s)                               : 2 channels
Channel layout                           : L R
Sampling rate                            : 48.0 kHz
Frame rate                               : 31.250 FPS (1536 SPF)
Bit depth                                : 16 bits
Compression mode                         : Lossy
Stream size                              : 149 MiB (1%)
Title                                    : , 2 ch, 192 Кбт/с
Language                                 : Ukrainian
Service kind                             : Complete Main
Default                                  : Yes
Forced                                   : No

Audio #2
ID                                       : 3
Format                                   : AC-3
Format/Info                              : Audio Coding 3
Commercial name                          : Dolby Digital
Codec ID                                 : A_AC3
Duration                                 : 1 h 48 min
Bit rate mode                            : Constant
Bit rate                                 : 448 kb/s
Channel(s)                               : 6 channels
Channel layout                           : L R C LFE Ls Rs
Sampling rate                            : 48.0 kHz
Frame rate                               : 31.250 FPS (1536 SPF)
Bit depth                                : 16 bits
Compression mode                         : Lossy
Stream size                              : 349 MiB (2%)
Title                                    : , 6 ch, 448 Кбт/с
Language                                 : English
Service kind                             : Complete Main
Default                                  : No
Forced                                   : No

Audio #3
ID                                       : 4
Format                                   : XLL
Format/Info                              : Digital Theater Systems
Commercial name                          : -HD Master Audio
Codec ID                                 : A_DTS
Duration                                 : 1 h 48 min
Bit rate mode                            : Variable
Bit rate                                 : 3 078 kb/s
Channel(s)                               : 6 channels
Channel layout                           : C L R Ls Rs LFE
Sampling rate                            : 48.0 kHz
Frame rate                               : 93.750 FPS (512 SPF)
Bit depth                                : 24 bits
Compression mode                         : Lossless
Stream size                              : 2.34 GiB (11%)
Title                                    : -HD MA, 6 ch, 3078 Кбт/с
Language                                 : English
Default                                  : No
Forced                                   : No

Text #1
ID                                       : 5
Format                                   : UTF-8
Codec ID                                 : S_TEXT/UTF8
Codec ID/Info                            : UTF-8 Plain Text
Duration                                 : 1 h 44 min
Bit rate                                 : 39 b/s
Count of elements                        : 1010
Stream size                              : 29.8 KiB (0%)
Title                                    : Full
Language                                 : English
Default                                  : Yes
Forced                                   : No

Text #2
ID                                       : 6
Format                                   : UTF-8
Codec ID                                 : S_TEXT/UTF8
Codec ID/Info                            : UTF-8 Plain Text
Duration                                 : 1 h 48 min
Bit rate                                 : 41 b/s
Count of elements                        : 1225
Stream size                              : 32.9 KiB (0%)
Title                                    : SDH
Language                                 : English
Default                                  : No
Forced                                   : No
Скріншоти





Джерело:
Особиста оцінка: 0 - не дивився


Золотий реліз (завантажене не впливає на рейтинг)
 Трекер:    Зареєстрований   

Завантажити / скачати фільм українською



відео для новачків



 Зареєстрований:   2019-11-24 14:18
 Розмір:   21.63 GB 
 Оцінка фільму:   8.4/10 (Голосів: 7)
   
Інші релізи
Soncezahyst 
Частий відвідувач


З нами з: 12.05.19
Востаннє: 23.09.20
Повідомлень: 46

2019-12-11 01:05  
Не сподобався. Марна витрата часу
Python_3.2 
Свій


З нами з: 28.12.12
Востаннє: 01.10.20
Повідомлень: 139

2020-08-05 02:14  
Цікавий фільм
Спершу видавався, як повна дурня. Але потім сюжет пішов.
В цілому непогано.
Хоча все ж наче невистачає якогось обдуманішого завершення, як для такої задумки.
Є зав'язка, умови, події, мотиви і розвиток, але все ж висновки і кінцівку можна було б більше обдумати.
А ще подача відповідей була досить спрощена, тобто нам просто буквально говорять чому, на противагу пазлу відопідей, який глядач міг би сам розгади.

Додано через 5 хвилин 55 секунд:

І тим не менш, фільм таки більше хороший, ніж поганий
Не часто подібне дивишся, тож цікаво Happy

Ваш часовий пояс: GMT + 2 Години

Нова тема   Відповісти