Медовий Місяць / Elizabeth Harvest (2018) 720p Ukr/Eng | Sub Eng

Нові коментарі

Нова тема   Відповісти
Автор Повідомлення
Anonymous 







2019-11-24 13:49  
Медовий Місяць / Elizabeth Harvest (2018) 720p Ukr/Eng | Sub Eng



Жанр: трилер, фантастика
Країна: США





Кінокомпанія: Voltage Pictures, Automatik Entertainment, Motion Picture Capital
Режисер: Джеймс Марш
Актори: Еббі Лі, Кьяран Гайндс, Карла Ґуджіно, Меттью Бірд, Ділан Бейкер та інші

Сюжет:
Юна та прекрасна Елізабет сама визнає, що інтелект – це не її сильна сторона. Вона завжди мріяла про щасливу сім'ю у затишному будинку і здається її мрії починають збуватися. Вона виходить заміж за Генрі, вже не молодого, проте дуже лагідного з нею науковця. Чоловік привозить молоду дружину у величезний маєток. Тут їй дозволено все, вона тут повноправна хазяйка. Та є одна заборона – Елізабет не можна заходити в одну з кімнат у підвалі. Там розміщується лабораторія її чоловіка і те, над чим він працює має назавжди залишитися таємницею. Проте цікавість бере верх і дівчина все ж відкриває двері.


Тривалість: 01:48:51
Якість: 720p
Відео:
кодек:
розмір кадру: 1280 х 536
бітрейт: 8121 кб/с

Аудіо # 1:
мова: українська
переклад: багатоголосий закадровий | студія AAA-Sound
кодек: 2.0 [stereo]
бітрейт: 192 кб/с

Аудіо # 2:
мова: англійська
переклад: оригінал
кодек: 5.1
бітрейт: 448 кб/с

Субтитри (Full, SHD):
мова: англійська
тип: програмні (м'які)
формат: *.srt
Info
Код:
General
Complete name                            : Elizabeth Harvest (2018) 720p [UKR_ENG] [ViDeO_Hurtom].
Format                                   :
Format version                           : Version 4
File size                                : 6.66 GiB
Duration                                 : 1 h 48 min
Overall bit rate                         : 8 761 kb/s
Encoded date                             : UTC 2019-11-24 10:08:27
Writing application                      : v30.1.0 ('Forever And More') 64-bit
Writing library                          : libebml v1.3.6 + v1.4.9
Cover                                    : Yes
Attachments                              : cover.jpg

Video
ID                                       : 1
Format                                   : AVC
Format/Info                              : Advanced Video Codec
Format profile                           : [email protected]
Format settings                          : CABAC / 9 Ref Frames
Format settings, CABAC                   : Yes
Format settings, RefFrames               : 9 frames
Codec ID                                 : V_MPEG4/ISO/AVC
Duration                                 : 1 h 48 min
Bit rate                                 : 8 121 kb/s
Width                                    : 1 280 pixels
Height                                   : 536 pixels
Display aspect ratio                     : 2.40:1
Frame rate mode                          : Constant
Frame rate                               : 23.976 (24000/1001) FPS
Color space                              : YUV
Chroma subsampling                       : 4:2:0
Bit depth                                : 8 bits
Scan type                                : Progressive
Bits/(Pixel*Frame)                       : 0.494
Stream size                              : 6.17 GiB (93%)
Writing library                          : core 146 r2538 121396c
Encoding settings                        : cabac=1 / ref=9 / deblock=1:0:0 / analyse=0x3:0x111 / me=umh / subme=9 / psy=1 / psy_rd=1.00:0.10 / mixed_ref=1 / me_range=32 / chroma_me=1 / trellis=2 / 8x8dct=1 / cqm=0 / deadzone=21,11 / fast_pskip=0 / chroma_qp_offset=-3 / threads=6 / lookahead_threads=1 / sliced_threads=0 / nr=0 / decimate=1 / interlaced=0 / bluray_compat=0 / constrained_intra=0 / bframes=3 / b_pyramid=2 / b_adapt=2 / b_bias=0 / direct=3 / weightb=1 / open_gop=0 / weightp=2 / keyint=250 / keyint_min=23 / scenecut=40 / intra_refresh=0 / rc_lookahead=50 / rc=2pass / mbtree=1 / bitrate=8121 / ratetol=1.0 / qcomp=0.60 / qpmin=0 / qpmax=69 / qpstep=4 / cplxblur=20.0 / qblur=0.5 / ip_ratio=1.40 / aq=1:1.00
Default                                  : Yes
Forced                                   : No

Audio #1
ID                                       : 2
Format                                   : AC-3
Format/Info                              : Audio Coding 3
Commercial name                          : Dolby Digital
Codec ID                                 : A_AC3
Duration                                 : 1 h 48 min
Bit rate mode                            : Constant
Bit rate                                 : 192 kb/s
Channel(s)                               : 2 channels
Channel layout                           : L R
Sampling rate                            : 48.0 kHz
Frame rate                               : 31.250 FPS (1536 SPF)
Bit depth                                : 16 bits
Compression mode                         : Lossy
Stream size                              : 149 MiB (2%)
Title                                    : 2.0 | 192
Language                                 : Ukrainian
Service kind                             : Complete Main
Default                                  : Yes
Forced                                   : No

Audio #2
ID                                       : 3
Format                                   : AC-3
Format/Info                              : Audio Coding 3
Commercial name                          : Dolby Digital
Codec ID                                 : A_AC3
Duration                                 : 1 h 48 min
Bit rate mode                            : Constant
Bit rate                                 : 448 kb/s
Channel(s)                               : 6 channels
Channel layout                           : L R C LFE Ls Rs
Sampling rate                            : 48.0 kHz
Frame rate                               : 31.250 FPS (1536 SPF)
Bit depth                                : 16 bits
Compression mode                         : Lossy
Stream size                              : 349 MiB (5%)
Title                                    : 5.1 | 448
Language                                 : English
Service kind                             : Complete Main
Default                                  : No
Forced                                   : No

Text #1
ID                                       : 4
Format                                   : UTF-8
Codec ID                                 : S_TEXT/UTF8
Codec ID/Info                            : UTF-8 Plain Text
Duration                                 : 1 h 44 min
Bit rate                                 : 39 b/s
Count of elements                        : 1010
Stream size                              : 29.8 KiB (0%)
Title                                    : Full
Language                                 : English
Default                                  : Yes
Forced                                   : No

Text #2
ID                                       : 5
Format                                   : UTF-8
Codec ID                                 : S_TEXT/UTF8
Codec ID/Info                            : UTF-8 Plain Text
Duration                                 : 1 h 48 min
Bit rate                                 : 41 b/s
Count of elements                        : 1225
Stream size                              : 32.9 KiB (0%)
Title                                    : SDH
Language                                 : English
Default                                  : No
Forced                                   : No
Скріншоти





Джерело:
Особиста оцінка: 0 - не дивився


 Трекер:    Зареєстрований   

Завантажити / скачати фільм українською



відео для новачків



 Зареєстрований:   2019-11-24 13:49
 Розмір:   6.66 GB 
 Оцінка фільму:   6.9/10 (Голосів: 7)
   
Інші релізи
Siegfried 
VIP


З нами з: 01.11.11
Востаннє: 10.09.20
Повідомлень: 325

2019-11-29 13:12  
"Синя Борода" в сучасних декораціях.

Все дуже вторинно і шаблонно.

Надзвичайно слабко.

2.5/10

lunatiq 
Частий відвідувач


З нами з: 01.02.16
Востаннє: 17.09.20
Повідомлень: 36

2019-12-01 00:16  
ні, 1 з 10
Ваш часовий пояс: GMT + 2 Години

Нова тема   Відповісти