Земля до початку часів 7. Камінь холодного вогню / The Land Before Time VII: The Stone of Cold Fire (2000) -AVC Ukr/Eng

Нові коментарі

Нова тема   Відповісти
Автор Повідомлення
sergiyko.5 
VIP


З нами з: 25.02.16
Востаннє: 27.10.20
Повідомлень: 3631

2019-11-24 11:06  
Всі одноіменні релізи на трекері

Земля до початку часів 7. Камінь холодного вогню / The Land Before Time VII: The Stone of Cold Fire (2000) -AVC Ukr/Eng


Земля до початку часів 7. Камінь холодного вогню / The Land Before Time VII: The Stone of Cold Fire (2000) -AVC Ukr/Eng

Жанр: мультфільм, пригоди, сімейний
Країна: США
Кінокомпанія: Universal Cartoon Studios
Режисер: Чарльз Гросвенор

Сюжет:
Малюк Крихти-Ніжки став єдиним свідком неймовірної події: на його очах, прямо з нічних небес впав «Камінь Холодного Вогню». Таємничий вогненний камінь приземлився десь в районі Димлячих Гір. Наш маленький герой поспішив повідомити про цю дивну подію місцевим мешканцям, але йому ніхто не повірив. Щоб довести свою правоту, Крихти-Ніжки збирає експедицію з своїх чарівних друзів-динозавриків і відправляється в захоплюючу подорож на пошуки «Каменя Холодного Вогню».




Тривалість: 01:14:02
Якість:

Відео: кодек: розмір кадру: 720 х 552 бітрейт: 1500 кб/с
Аудіо # 1: мова: українська переклад: професійний дубльований кодек: 2.0 бітрейт: 192 кб/с
Озвучення:
Аудіо # 2: мова: англійська переклад: оригінал кодек: 5.1 бітрейт: 448 кб/с
Про файл:
General
Unique ID : 131953340318169785895219324433839299748 (0x634549F7D861CEA4F266A94D71CA1CA4)
Complete name : D:\Documents\Torrents\MULT\The Land Before Time 7.The Stone of Cold Fire.2000..
Format :
Format version : Version 4
File size : 1.08 GiB
Duration : 1 h 14 min
Overall bit rate : 2 088 kb/s
Movie name : The Land Before Time 7 rip by sergiyko
Encoded date : UTC 2019-11-24 08:57:21
Writing application : v39.0.0 ('In The Waiting Line') 64-bit
Writing library : libebml v1.3.9 + v1.5.2
Cover : Yes
Attachments : cover.jpeg

Video
ID : 1
Format : AVC
Format/Info : Advanced Video Codec
Format profile : [email protected]
Format settings : CABAC / 11 Ref Frames
Format settings, CABAC : Yes
Format settings, Reference fra : 11 frames
Codec ID : V_MPEG4/ISO/AVC
Duration : 1 h 14 min
Bit rate : 1 445 kb/s
Width : 720 pixels
Height : 552 pixels
Display aspect ratio : 4:3
Frame rate mode : Constant
Frame rate : 23.976 (24000/1001) FPS
Color space : YUV
Chroma subsampling : 4:2:0
Bit depth : 8 bits
Scan type : Progressive
Bits/(Pixel*Frame) : 0.152
Stream size : 765 MiB (69%)
Title : The Land Before Time 7
Writing library : core 157 r2969 d4099dd
Encoding settings : cabac=1 / ref=11 / deblock=1:-1:0 / analyse=0x3:0x113 / me=umh / subme=9 / psy=1 / psy_rd=0.40:0.00 / mixed_ref=1 / me_range=16 / chroma_me=1 / trellis=2 / 8x8dct=1 / cqm=0 / deadzone=21,11 / fast_pskip=1 / chroma_qp_offset=-2 / threads=17 / lookahead_threads=1 / sliced_threads=0 / nr=0 / decimate=0 / interlaced=0 / bluray_compat=0 / constrained_intra=0 / bframes=5 / b_pyramid=2 / b_adapt=2 / b_bias=0 / direct=3 / weightb=1 / open_gop=0 / weightp=2 / keyint=250 / keyint_min=23 / scenecut=40 / intra_refresh=0 / rc_lookahead=60 / rc=2pass / mbtree=1 / bitrate=1445 / ratetol=1.0 / qcomp=0.70 / qpmin=0 / qpmax=69 / qpstep=4 / cplxblur=20.0 / qblur=0.5 / vbv_maxrate=14000 / vbv_bufsize=14000 / nal_hrd=none / filler=0 / ip_ratio=1.40 / aq=1:0.60
Language : English
Default : Yes
Forced : No

Audio #1
ID : 2
Format : AC-3
Format/Info : Audio Coding 3
Commercial name : Dolby Digital
Codec ID : A_AC3
Duration : 1 h 14 min
Bit rate mode : Constant
Bit rate : 192 kb/s
Channel(s) : 2 channels
Channel layout : L R
Sampling rate : 48.0 kHz
Frame rate : 31.250 FPS (1536 SPF)
Bit depth : 16 bits
Compression mode : Lossy
Stream size : 102 MiB (9%)
Title : DUB | К1
Language : Ukrainian
Service kind : Complete Main
Default : Yes
Forced : Yes

Audio #2
ID : 3
Format : AC-3
Format/Info : Audio Coding 3
Commercial name : Dolby Digital
Codec ID : A_AC3
Duration : 1 h 14 min
Bit rate mode : Constant
Bit rate : 448 kb/s
Channel(s) : 6 channels
Channel layout : L R C LFE Ls Rs
Sampling rate : 48.0 kHz
Frame rate : 31.250 FPS (1536 SPF)
Bit depth : 16 bits
Compression mode : Lossy
Stream size : 237 MiB (21%)
Title : Original
Language : English
Service kind : Complete Main
Default : No
Forced : No
Скріншоти:


Запис/зведення: sergiyko


Срібний реліз (на рейтинг впливає 50% завантаженого)
 Трекер:    Зареєстрований   

Завантажити / скачати мультфільм українською



відео для новачків



 Зареєстрований:   2019-11-24 11:06
 Розмір:   1.08 GB 
 Оцінка мультфільму:   9.9/10 (Голосів: 9)
   
Ваш часовий пояс: GMT + 2 Години

Нова тема   Відповісти