Деріл / D.A.R.Y.L. (1985) AVC Ukr/Eng | sub Eng

Нові коментарі

Нова тема   Відповісти
Автор Повідомлення
Arsenfpu 
Відео Гуртом - фільмокрай
Відео Гуртом - фільмокрай


З нами з: 30.04.09
Востаннє: 10.12.19
Повідомлень: 6293

2019-11-23 16:46  
Деріл / D.A.R.Y.L. (1985) AVC Ukr/Eng | sub Eng

Деріл / D.A.R.Y.L. (1985) AVC Ukr/Eng | sub Eng


Жанр: фантастика, сімейний
Країна: США, Великобританія



Кінокомпанія: Paramount Pictures
Режисер: Саймон Вінсер
Актори: Мері Бет Херт, Майкл Маккін, Кетрін Волкер, Коллін Кемп, Йозеф Зоммер, Рон Фрезіер, Стів Раян, Девід Вол, Денні Коркілл, Емі Лінкер

Сюжет:
Молода подружня пара усиновляє знайденого в лісі хлопчика, який страждає частковою втратою пам'яті, але володіє унікальними здібностями. Він навчився грати на піаніно за кілька хвилин, в школі показав приголомшливі знання, а в бейсбол грав на заздрість професіоналам. Він був ідеальним сином, що здавалося трохи дивним. Підозри не були необгрунтованими Деріл виявився андроїдом, украденим із секретної військової бази.


Тривалість: 01:39:55
Якість:
Відео:
кодек:
розмір кадру: 1 024 х 432
бітрейт: 2 499 кб/с

Аудіо # 1:
мова: українська
переклад: багатоголосий закадровий
кодек: 2.0
бітрейт: 192 кб/с

Аудіо # 2:
мова: англійська
переклад: оригінал
кодек: 2.0
бітрейт: 192 кб/с

Субтитри:
мова: англійська
тип: програмні (м'які)
формат: *.srt
Про файл
General
Unique ID : 197467713925628363859967422689691003664 (0x948EE5F8F2DF4D9E4CAE9D305C1B6B10)
Complete name : C:\D.A.R.Y.L. (1985) [Ukr,Eng] AVC [Hurtom].
Format :
Format version : Version 4 / Version 2
File size : 2.01 GiB
Duration : 1 h 39 min
Overall bit rate : 2 885 kb/s
Movie name : Деріл / D.A.R.Y.L. (1985)
Encoded date : UTC 2019-11-23 14:22:49
Writing application : v21.0.0 ('Tardigrades Will Inherit The Earth') 32-bit
Writing library : libebml v1.3.5 + v1.4.8
Cover : Yes
Attachments : cover.jpg

Video
ID : 1
Format : AVC
Format/Info : Advanced Video Codec
Format profile : [email protected]
Format settings, CABAC : Yes
Format settings, ReFrames : 4 frames
Codec ID : V_MPEG4/ISO/AVC
Duration : 1 h 39 min
Bit rate : 2 499 kb/s
Width : 1 024 pixels
Height : 432 pixels
Display aspect ratio : 2.40:1
Frame rate mode : Constant
Frame rate : 23.976 (24000/1001) FPS
Color space : YUV
Chroma subsampling : 4:2:0
Bit depth : 8 bits
Scan type : Progressive
Bits/(Pixel*Frame) : 0.236
Stream size : 1.74 GiB (87%)
Writing library : core 157 r2935 545de2f
Encoding settings : cabac=1 / ref=3 / deblock=1:-1:-1 / analyse=0x3:0x113 / me=hex / subme=7 / psy=1 / psy_rd=1.00:0.15 / mixed_ref=1 / me_range=16 / chroma_me=1 / trellis=1 / 8x8dct=1 / cqm=0 / deadzone=21,11 / fast_pskip=1 / chroma_qp_offset=-3 / threads=12 / lookahead_threads=2 / sliced_threads=0 / nr=0 / decimate=1 / interlaced=0 / bluray_compat=0 / constrained_intra=0 / bframes=3 / b_pyramid=2 / b_adapt=1 / b_bias=0 / direct=1 / weightb=1 / open_gop=0 / weightp=2 / keyint=240 / keyint_min=23 / scenecut=40 / intra_refresh=0 / rc_lookahead=40 / rc=2pass / mbtree=1 / bitrate=2499 / ratetol=1.0 / qcomp=0.60 / qpmin=0 / qpmax=69 / qpstep=4 / cplxblur=20.0 / qblur=0.5 / ip_ratio=1.40 / aq=1:1.00
Default : Yes
Forced : No

Audio #1
ID : 2
Format : AC-3
Format/Info : Audio Coding 3
Mode extension : CM (complete main)
Format settings, Endianness : Big
Codec ID : A_AC3
Duration : 1 h 39 min
Bit rate mode : Constant
Bit rate : 192 kb/s
Channel(s) : 2 channels
Channel positions : Front: L R
Sampling rate : 48.0 kHz
Frame rate : 31.250 FPS (1536 spf)
Compression mode : Lossy
Stream size : 137 MiB (7%)
Title : К1
Language : Ukrainian
Default : Yes
Forced : Yes

Audio #2
ID : 3
Format : AC-3
Format/Info : Audio Coding 3
Mode extension : CM (complete main)
Format settings, Endianness : Big
Codec ID : A_AC3
Duration : 1 h 39 min
Bit rate mode : Constant
Bit rate : 192 kb/s
Channel(s) : 2 channels
Channel positions : Front: L R
Sampling rate : 48.0 kHz
Frame rate : 31.250 FPS (1536 spf)
Compression mode : Lossy
Stream size : 137 MiB (7%)
Language : English
Default : No
Forced : No

Text #1
ID : 4
Format : UTF-8
Codec ID : S_TEXT/UTF8
Codec ID/Info : UTF-8 Plain Text
Duration : 1 h 34 min
Bit rate : 50 b/s
Count of elements : 1022
Stream size : 35.1 KiB (0%)
Language : English
Default : Yes
Forced : No

Text #2
ID : 5
Format : UTF-8
Codec ID : S_TEXT/UTF8
Codec ID/Info : UTF-8 Plain Text
Duration : 1 h 39 min
Bit rate : 57 b/s
Count of elements : 1544
Stream size : 41.9 KiB (0%)
Language : English
Default : No
Forced : No
Скріншоти
















Джерело:
За українську доріжку дякую п. pyatachok, dvorsky
Особиста оцінка: не дивився


Срібний реліз (на рейтинг впливає 50% завантаженого)
 Трекер:    Зареєстрований   

Завантажити / скачати фільм українською



відео для новачків



 Зареєстрований:   2019-11-23 16:46
 Розмір:   2.01 GB 
 Оцінка фільму:   9.7/10 (Голосів: 9)
   
Інші релізи
   Деріл / D.A.R.Y.L. (1985) pyatachok  0 / 0   1.33 GB   2012-08-14 20:37 
don pedro 
Попереджень: 2
Попереджень: 2 


З нами з: 29.06.11
Востаннє: 09.12.19
Повідомлень: 14993

2019-11-23 17:00  
Американські "Пригоди Електроніка"?
Gespenst 
VIP


З нами з: 30.09.09
Востаннє: 10.12.19
Повідомлень: 296

2019-11-23 17:06  
don pedro написано:
Американські "Пригоди Електроніка"?

Насправді пригоди електроніка, як і все у совку, були здерті з американського фільму. цілком можливо що з цього, я просто не пригадую з якого.

don pedro 
Попереджень: 2
Попереджень: 2 


З нами з: 29.06.11
Востаннє: 09.12.19
Повідомлень: 14993

2019-11-23 17:14  
Gespenst
"Пригоди Електроніка" раніше вийшли.

kiboal 
Свій


З нами з: 25.12.14
Востаннє: 07.12.19
Повідомлень: 124

2019-11-24 11:14  
Фільм вартий уваги, мені сподобався, прям зібралі всі кліще ..80х.Але можна пробачити.
Тільки не читайте опис, там спойлер.А якщо гуглити фільм на оцінкі .Бали поставлені справедливо

Ваш часовий пояс: GMT + 2 Години

Нова тема   Відповісти