Амаріліс / Yellow (2006) AVC Ukr/Eng | Sub Eng

Нові коментарі

Нова тема   Відповісти
Автор Повідомлення
Arsenfpu 
Відео Гуртом - фільмокрай
Відео Гуртом - фільмокрай


З нами з: 30.04.09
Востаннє: 09.12.19
Повідомлень: 6285

2019-11-23 12:09  
Амаріліс / Yellow (2006) AVC Ukr/Eng | Sub Eng

Амаріліс / Yellow (2006) AVC Ukr/Eng | Sub Eng


Жанр: драма, музика, музичний, романтичний
Країна: Пуерто Ріко, США



Кінокомпанія: Royal McBee, Yellow Productions Corp.
Режисер: Альфредо Де Вілла
Актори: Розелін Санчез, Білл Дьюк, Д.Б. Свіні, Джейм Тіреллі, Саллі Діаз, Річард Петрочеллі, Ненсі Міллан, Менні Перез, Еріка Мішелс Браун, Хорхе Р. Калдерон

Сюжет:
Це історія Амаріліс Кемпос, молодої танцівниці, чиї довірчі відносини з батьком Франко, який колись був яскравою зіркою балету в Нью-Йорку, змушує її змінити рідний Пуерто-Ріко на Манхеттен для того, щоб реалізувати себе. Амаріліс вирішує досягти слави й успіху в якості танцівниці. Не маючи пристойних пропозицій про роботу, дівчина погоджується працювати танцівницею в стриптиз-клубі, де її чекають нові розчарування, а також цікаві знайомства...


Тривалість: 01:33:05
Якість:
Відео:
кодек:
розмір кадру: 1024 х 432
бітрейт: 2499 кб/с

Аудіо # 1:
мова: українська
переклад: двоголосий закадровий
кодек: 2.0
бітрейт: 192 кб/с

Аудіо # 2:
мова: англійська
переклад: оригінал
кодек: E- 2.0
бітрейт: 224 кб/с

Субтитри:
мова: англійська
тип: програмні (м'які)
формат: *.srt
Про файл
General
Unique ID : 114288240485902372841181623254498040658 (0x55FB1D4D88807648424945C075525B52)
Complete name : C:\Yellow (2006) [Ukr,Eng] AVC [Hurtom].
Format :
Format version : Version 4 / Version 2
File size : 1.89 GiB
Duration : 1 h 33 min
Overall bit rate : 2 914 kb/s
Movie name : Амаріліс / Yellow (2006)
Encoded date : UTC 2019-11-23 06:30:34
Writing application : v21.0.0 ('Tardigrades Will Inherit The Earth') 32-bit
Writing library : libebml v1.3.5 + v1.4.8
Cover : Yes
Attachments : cover.jpg

Video
ID : 1
Format : AVC
Format/Info : Advanced Video Codec
Format profile : [email protected]
Format settings, CABAC : Yes
Format settings, ReFrames : 4 frames
Codec ID : V_MPEG4/ISO/AVC
Duration : 1 h 33 min
Bit rate : 2 499 kb/s
Width : 1 024 pixels
Height : 432 pixels
Display aspect ratio : 2.40:1
Frame rate mode : Constant
Frame rate : 23.976 (24000/1001) FPS
Color space : YUV
Chroma subsampling : 4:2:0
Bit depth : 8 bits
Scan type : Progressive
Bits/(Pixel*Frame) : 0.236
Stream size : 1.62 GiB (86%)
Writing library : core 157 r2935 545de2f
Encoding settings : cabac=1 / ref=3 / deblock=1:-1:-1 / analyse=0x3:0x113 / me=hex / subme=7 / psy=1 / psy_rd=1.00:0.15 / mixed_ref=1 / me_range=16 / chroma_me=1 / trellis=1 / 8x8dct=1 / cqm=0 / deadzone=21,11 / fast_pskip=1 / chroma_qp_offset=-3 / threads=12 / lookahead_threads=2 / sliced_threads=0 / nr=0 / decimate=1 / interlaced=0 / bluray_compat=0 / constrained_intra=0 / bframes=3 / b_pyramid=2 / b_adapt=1 / b_bias=0 / direct=1 / weightb=1 / open_gop=0 / weightp=2 / keyint=240 / keyint_min=23 / scenecut=40 / intra_refresh=0 / rc_lookahead=40 / rc=2pass / mbtree=1 / bitrate=2499 / ratetol=1.0 / qcomp=0.60 / qpmin=0 / qpmax=69 / qpstep=4 / cplxblur=20.0 / qblur=0.5 / ip_ratio=1.40 / aq=1:1.00
Default : Yes
Forced : No

Audio #1
ID : 2
Format : AC-3
Format/Info : Audio Coding 3
Mode extension : CM (complete main)
Format settings, Endianness : Big
Codec ID : A_AC3
Duration : 1 h 33 min
Bit rate mode : Constant
Bit rate : 192 kb/s
Channel(s) : 2 channels
Channel positions : Front: L R
Sampling rate : 48.0 kHz
Frame rate : 31.250 FPS (1536 spf)
Compression mode : Lossy
Stream size : 128 MiB (7%)
Title : Тоніс
Language : Ukrainian
Default : Yes
Forced : Yes

Audio #2
ID : 3
Format : E-AC-3
Format/Info : Audio Coding 3
Format settings, Endianness : Big
Codec ID : A_EAC3
Duration : 1 h 33 min
Bit rate mode : Constant
Bit rate : 224 kb/s
Channel(s) : 2 channels
Channel positions : Front: L R
Sampling rate : 48.0 kHz
Frame rate : 187.500 FPS (256 spf)
Compression mode : Lossy
Stream size : 149 MiB (8%)
Language : English
Default : No
Forced : No

Text #1
ID : 4
Format : UTF-8
Codec ID : S_TEXT/UTF8
Codec ID/Info : UTF-8 Plain Text
Duration : 1 h 30 min
Bit rate : 38 b/s
Count of elements : 849
Stream size : 25.3 KiB (0%)
Language : English
Default : Yes
Forced : No

Text #2
ID : 5
Format : UTF-8
Codec ID : S_TEXT/UTF8
Codec ID/Info : UTF-8 Plain Text
Duration : 1 h 31 min
Bit rate : 40 b/s
Count of elements : 940
Stream size : 27.0 KiB (0%)
Language : English
Default : No
Forced : No
Скріншоти















Джерело:
За матеріал для релізу дякую п. Disturbed, somnambula, urij546724, drop_plz
Особиста оцінка: не дивився


 Трекер:    Зареєстрований   

Завантажити / скачати фільм українською



відео для новачків



 Зареєстрований:   2019-11-23 12:09
 Розмір:   1.89 GB 
 Оцінка фільму:   9.3/10 (Голосів: 7)
   
Інші релізи
   Амаріліс / Yellow (2006) 1080p Ukr/Eng | Sub Eng drop_plz  1 / 1   7.65 GB   2018-07-05 16:45 
   Амаріліс / Yellow (2006) Ukr/Eng-Spa urij546724  1 / 0   831 MB   2012-03-21 00:30 
Lucianenko 
Свій


З нами з: 09.07.16
Востаннє: 06.12.19
Повідомлень: 90

2019-11-28 16:21  
Гарний фільм про повію, яка вважає що вона не повія, а танцівниця))) Особисто знаю не одну "танцівницю" тому сміливо стверджую і рекомендую фільм майже хрестоматійний!
Ваш часовий пояс: GMT + 2 Години

Нова тема   Відповісти