Лего. Супергерої Марвел: Месники. Возз'єднання / Lego Marvel Super Heroes: Avengers Reassembled (2015) 1080p Ukr/Eng | Sub Eng

Нові коментарі

Нова тема   Відповісти
Автор Повідомлення
sergiyko.5 
VIP


З нами з: 25.02.16
Востаннє: 22.02.20
Повідомлень: 2940

2019-11-22 15:13  
Лего. Супергерої Марвел: Месники. Возз'єднання / Lego Marvel Super Heroes: Avengers Reassembled (2015) 1080p Ukr/Eng | Sub Eng


Лего. Супергерої Марвел: Месники. Возз'єднання / Lego Marvel Super Heroes: Avengers Reassembled (2015) 1080p Ukr/Eng | Sub Eng

Жанр: анімація, фантастика, бойовик
Країна: США
Кінокомпанія: Disney Television Animation
Режисер: Роб Сільвестрі

Сюжет:
Доки у світі зберігався відносний спокій і ніхто не намагався захопити чи знищити планету, Месники влаштували собі відпочинок. Їхня компанія весело проводила час у башті Тоні Старка: влаштовувала вечірки і смакувала улюблені фрикадельки. Ніхто й не підозрював, що загроза може причаїтися всередині, у самому Альтроні, якого не покликали на вечірку. Альтрон вирішив помститися Месникам, і заволодів численними костюмами Залізної Людини. Тепер він має секретні розробки Старка, до того ж у пастку потрапив і сам Тоні, адже він на той момент знаходився в костюмі...




Тривалість: 00:22:03
Якість:

Відео: кодек: розмір кадру: 1920 х 1080 бітрейт: 4600 кб/с
Аудіо # 1: мова: українська переклад: професійний дубльований кодек: 2.0 бітрейт: 192 кб/с
Озвучення:
Аудіо # 2: мова: англійська переклад: оригінал кодек: + 5.1 бітрейт: 384 кб/с
Субтитри: мова: англійська тип: програмні (м'які) формат: *.srt
Про файл
General
Unique ID : 195620971347978284060655593697591049026 (0x932B3A889ABEF3F2158E7FE514D63B42)
Complete name : D:\Documents\Torrents\MULT\LEGO.Marvel Super Heroes.Avengers Reassembled.2015.1080p..
Format :
Format version : Version 4
File size : 856 MiB
Duration : 22 min 3 s
Overall bit rate mode : Variable
Overall bit rate : 5 423 kb/s
Movie name : LEGO Marvel Super Heroes Avengers Reassembled 2015 by sergiyko
Encoded date : UTC 2019-11-22 13:08:43
Writing application : v39.0.0 ('In The Waiting Line') 64-bit
Writing library : libebml v1.3.9 + v1.5.2
Cover : Yes
Attachments : cover.jpeg

Video
ID : 1
Format : AVC
Format/Info : Advanced Video Codec
Format profile : [email protected]
Format settings : CABAC / 3 Ref Frames
Format settings, CABAC : Yes
Format settings, Reference : 3 frames
Codec ID : V_MPEG4/ISO/AVC
Duration : 22 min 3 s
Bit rate mode : Variable
Bit rate : 4 640 kb/s
Maximum bit rate : 6 960 kb/s
Width : 1 920 pixels
Height : 1 080 pixels
Display aspect ratio : 16:9
Frame rate mode : Constant
Frame rate : 23.976 (24000/1001) FPS
Color space : YUV
Chroma subsampling : 4:2:0
Bit depth : 8 bits
Scan type : Progressive
Bits/(Pixel*Frame) : 0.093
Stream size : 724 MiB (85%)
Title : LEGO.Marvel Super Heroes.Avengers Reassembled.2015
Writing library : core 118
Encoding settings : cabac=1 / ref=3 / deblock=1:0:0 / analyse=0x1:0x111 / me=umh / subme=10 / psy=1 / psy_rd=1.00:0.00 / mixed_ref=1 / me_range=24 / chroma_me=1 / trellis=2 / 8x8dct=0 / cqm=0 / deadzone=21,11 / fast_pskip=1 / chroma_qp_offset=-2 / threads=8 / sliced_threads=0 / nr=0 / decimate=1 / interlaced=0 / bluray_compat=0 / constrained_intra=0 / bframes=2 / b_pyramid=0 / b_adapt=2 / b_bias=0 / direct=3 / weightb=1 / open_gop=0 / weightp=2 / keyint=48 / keyint_min=25 / scenecut=0 / intra_refresh=0 / rc_lookahead=0 / rc=2pass / mbtree=1 / bitrate=4640 / ratetol=1.0 / qcomp=0.50 / qpmin=6 / qpmax=51 / qpstep=4 / cplxblur=20.0 / qblur=0.5 / vbv_maxrate=6960 / vbv_bufsize=9280 / nal_hrd=vbr / ip_ratio=1.40 / aq=1:1.00
Language : English
Default : Yes
Forced : No

Audio #1
ID : 2
Format : AC-3
Format/Info : Audio Coding 3
Commercial name : Dolby Digital
Codec ID : A_AC3
Duration : 22 min 3 s
Bit rate mode : Constant
Bit rate : 192 kb/s
Channel(s) : 2 channels
Channel layout : L R
Sampling rate : 48.0 kHz
Frame rate : 31.250 FPS (1536 SPF)
Bit depth : 16 bits
Compression mode : Lossy
Stream size : 30.3 MiB (4%)
Title : DUB 2ch | ПлюсПлюс
Language : Ukrainian
Service kind : Complete Main
Default : Yes
Forced : Yes

Audio #2
ID : 3
Format : E-AC-3
Format/Info : Enhanced AC-3
Commercial name : Dolby Digital Plus
Codec ID : A_EAC3
Duration : 22 min 3 s
Bit rate mode : Constant
Bit rate : 640 kb/s
Channel(s) : 6 channels
Channel layout : L R C LFE Ls Rs
Sampling rate : 48.0 kHz
Frame rate : 31.250 FPS (1536 SPF)
Compression mode : Lossy
Stream size : 101 MiB (12%)
Title : Original
Language : English
Service kind : Complete Main
Default : No
Forced : No

Text
ID : 4
Format : UTF-8
Codec ID : S_TEXT/UTF8
Codec ID/Info : UTF-8 Plain Text
Duration : 21 min 53 s
Bit rate : 68 b/s
Count of elements : 399
Stream size : 11.0 KiB (0%)
Title : English
Language : English
Default : No
Forced : No
Скріншоти:


Запис/зведення: sergiyko


 Трекер:    Зареєстрований   

Завантажити / скачати мультфільм українською



відео для новачків



 Зареєстрований:   2019-11-22 15:13
 Розмір:   856 MB 
 Оцінка мультфільму:   10/10 (Голосів: 3)
   
Ваш часовий пояс: GMT + 2 Години

Нова тема   Відповісти