Домініон: Танкова поліція / Dominion: Tank Police [04/04] (1988)

Нові коментарі

Нова тема   Відповісти
Автор Повідомлення
rzhumen88 
Новенький


З нами з: 18.08.18
Востаннє: 25.01.20
Повідомлень: 7

2019-11-22 00:01  
Домініон: Танкова поліція / Dominion: Tank Police (1988)

Домініон: Танкова поліція / Dominion: Tank Police [04/04] (1988)


Жанр: Сйонен, Фантастика, Комедія, Кіберпанк, Майбутнє
Країна: Японія



5.05 (866 голосів)

Кінокомпанія: Agent 21
Режисер: Масімо Коічі
Ролі озвучують: Хіромі Цуру, Масаракі Окура, Юсаку Яра, Ічіро Нагай, Шигеру Чіба, Джоджи Янамі та інші

Сюжет:
Дія розгортається у вигаданому японському місті Ньюпорт, у майбутньому, коли сильне бактеріологічно-забруднене повітря змусило жителів постійно носити протигази. Сюжет присвячений поліцейському відділку, що використовує танки.


Тривалість: 1 серія: 35:00 - 40:00 (цілком серій: 4)
Перелік серій
1) АКТ-1 "Бригада по боротьбі зі злочинністю"
2) АКТ-2 "Кримінальна війна"
3) АКТ-3 "Кримінальний Етікєт"
4) АКТ-4 "Кримінальний фактор" (або..."Гарні люди прибігають к злочинам... Та звісно ж погані також")
Якість:
Відео:
кодек:
розмір кадру: 700 x 480
бітрейт: 1633 kb/s

Аудіо # 1:
мова: українська
переклад: одноголосий закадровий
кодек: MP3
бітрейт: 192 кб/с

Аудіо # 2:
мова: японська
переклад: оригінал
кодек: 2.0
бітрейт: 488 кб/с

Джерело озвучення:
Info
General
Unique ID : 244782126832433747263068245525374268397 (0xB82752A27AB5757E94FA68D9FF0D73ED)
Complete name : D:\TORRENTS\Домініон Танкова Поліція\Домініон Танкова Поліція 01.
Format :
Format version : Version 4
File size : 465 MiB
Duration : 38 min 10 s
Overall bit rate : 1 704 kb/s
Movie name : Dominion - Episode 1 - Crime Brigade (1988) [OnDeed]
Encoded date : UTC 2019-11-21 21:38:16 / UTC 2016-10-31T06:58:26Z
Writing application : v25.0.0 ('Prog Noir') 64-bit
Writing library : libebml v1.3.6 + v1.4.9 / Lavf55.12.0
Attachments : GillSansStd-Italic.otf / GillSansStd.otf

Video
ID : 1
Format : AVC
Format/Info : Advanced Video Codec
Format profile : [email protected]
Format settings : CABAC / 6 Ref Frames
Format settings, CABAC : Yes
Format settings, Reference : 6 frames
Codec ID : V_MPEG4/ISO/AVC
Duration : 38 min 10 s
Bit rate : 1 030 kb/s
Width : 700 pixels
Height : 480 pixels
Display aspect ratio : 4:3
Frame rate mode : Constant
Frame rate : 23.976 (24000/1001) FPS
Color space : YUV
Chroma subsampling : 4:2:0
Bit depth : 8 bits
Scan type : Progressive
Bits/(Pixel*Frame) : 0.128
Stream size : 281 MiB (60%)
Writing library : core 142 r2479 dd79a61
Encoding settings : cabac=1 / ref=6 / deblock=1:1:1 / analyse=0x3:0x113 / me=hex / subme=7 / psy=1 / psy_rd=0.40:0.00 / mixed_ref=1 / me_range=16 / chroma_me=1 / trellis=1 / 8x8dct=1 / cqm=0 / deadzone=21,11 / fast_pskip=1 / chroma_qp_offset=-2 / threads=18 / lookahead_threads=3 / sliced_threads=0 / nr=0 / decimate=1 / interlaced=0 / bluray_compat=0 / constrained_intra=0 / bframes=5 / b_pyramid=2 / b_adapt=1 / b_bias=0 / direct=1 / weightb=1 / open_gop=0 / weightp=2 / keyint=240 / keyint_min=24 / scenecut=40 / intra_refresh=0 / rc_lookahead=40 / rc=crf / mbtree=1 / crf=20.0 / qcomp=0.60 / qpmin=0 / qpmax=69 / qpstep=4 / ip_ratio=1.40 / aq=1:0.60
Default : Yes
Forced : No
Color range : Limited
Color primaries : BT.601 NTSC
Transfer characteristics : BT.709
Matrix coefficients : BT.601
Statistics Tags Issue : v25.0.0 ('Prog Noir') 64-bit 2019-11-21 21:38:16 / v25.0.0 ('Prog Noir') 64-bit 2019-11-21 21:38:16 / UTC 2016-10-31T06:58:26Z
FromStats_BitRate : 1061304
FromStats_Duration : 00:38:10.288000000
FromStats_FrameCount : 54912
FromStats_StreamSize : 303836731

Audio #1
ID : 2
Format : MPEG Audio
Format version : Version 1
Format profile : Layer 3
Codec ID : A_MPEG/L3
Codec ID/Hint : MP3
Duration : 38 min 10 s
Bit rate mode : Constant
Bit rate : 192 kb/s
Channel(s) : 2 channels
Sampling rate : 44.1 kHz
Compression mode : Lossy
Delay relative to video : -83 ms
Stream size : 52.4 MiB (11%)
Title : Ukrop_Bob
Default : Yes
Forced : No
Statistics Tags Issue : v25.0.0 ('Prog Noir') 64-bit 2019-11-21 21:38:16 / v25.0.0 ('Prog Noir') 64-bit 2019-11-21 21:38:16 / UTC 2016-10-31T06:58:26Z
FromStats_BitRate : 192000
FromStats_Duration : 00:38:10.416000000
FromStats_FrameCount : 87680
FromStats_StreamSize : 54969992

Audio #2
ID : 3
Format : AC-3
Format/Info : Audio Coding 3
Commercial name : Dolby Digital
Codec ID : A_AC3
Duration : 38 min 10 s
Bit rate mode : Constant
Bit rate : 448 kb/s
Channel(s) : 2 channels
Channel layout : L R
Sampling rate : 48.0 kHz
Frame rate : 31.250 FPS (1536 SPF)
Bit depth : 16 bits
Compression mode : Lossy
Stream size : 122 MiB (26%)
Title : Stereo
Language : Japanese
Service kind : Complete Main
Default : No
Forced : No
Statistics Tags Issue : v25.0.0 ('Prog Noir') 64-bit 2019-11-21 21:38:16 / v25.0.0 ('Prog Noir') 64-bit 2019-11-21 21:38:16 / UTC 2016-10-31T06:58:26Z
FromStats_BitRate : 448000
FromStats_Duration : 00:38:10.080000000
FromStats_FrameCount : 71565
FromStats_StreamSize : 128244480

Menu
00:00:00.000 : :Prologue
00:03:31.961 : :Opening Credits
00:05:16.065 : :Episode 1 - Crime Brigade
00:35:02.558 : :Ending Credits
00:37:08.309 : :Next Episode Preview
Скріншоти



Джерело: Ukrop_Bob
Особиста оцінка: 9 - давно не бачив настільки якісне кіно


Авторський реліз (завантажувати можна без реєстрації)
 Трекер:    Зареєстрований   

Завантажити / скачати аніме українською



відео для новачків



 Зареєстрований:   2019-11-22 00:01
 Розмір:   1.85 GB 
 Оцінка аніме:   9.5/10 (Голосів: 4)
   
Dzuski.com 
Поважний учасник


З нами з: 08.09.19
Востаннє: 16.02.20
Повідомлень: 154

2019-11-22 00:35  
Красава! Оце справді діло! Зараз зацінимо.
Ліхтарник 
VIP


З нами з: 16.09.14
Востаннє: 16.02.20
Повідомлень: 1517

2019-11-22 14:13  
Вибачте, та маю зауваження до озвучення.
Погано що переспівали пісні, краще б прописали титрами.
Голос не налаштований, погано вимовляєте слова та закінчення. Зачитуйте декілька разів текст перед тим як писати.

Ваш часовий пояс: GMT + 2 Години

Нова тема   Відповісти