У випадку вбивства телефонуйте "М" / Dial M for Murder (1954) Remux 1080p Ukr/Eng | Sub Eng

Нові коментарі

Нова тема   Відповісти
Автор Повідомлення
MakRA 
VIP


З нами з: 11.11.18
Востаннє: 28.09.20
Повідомлень: 1120

2019-11-21 02:56  
У випадку вбивства телефонуйте "М" / Dial M for Murder (1954) Remux 1080p Ukr/Eng | Sub Eng


Альтернативні постери:




Жанр: трилер, кримінальний, детектив
Країна: США



Кінокомпанія: Warner Bros. Pictures
Режисер: Альфред Гічкок [Alfred Hitchcock]
Актори: Рей Мілленд [Ray Milland], Грейс Келлі [Grace Kelly], Роберт Каммінгс [Robert Cummings], Джон Вільямс [John Williams], Ентоні Доусон [Anthony Dawson], Лео Брітт [Leo Britt]

Сюжет:
Колишній тенісист Тоні Вендіс звик жити на широку ногу. Тому коли він дізнається, що його багата дружина Марго завела роман з письменником Марком Голлідеєм, від розпачу Тоні вирішує раз і назавжди позбавитися Марго. Він запрошує в гості Суона, свого давнього приятеля по коледжу, й, шантажуючи його, примушує вбити свою дружину. У намічений час Суон з'являється на місці вбивства, але раптом плани йдуть шкереберть…
Фільм знятий у 1954 році за мотивами п'єси Фредеріка Нотта. На 31 грудня 2018 року займав 155-у позицію у списку 250 найкращих фільмів за версією IMDb.

Цікаве про фільм та зйомки:

-Камео режисера — на фотографії з зустрічі випускників (одне з найбільш непомітних камео Гічкока).
-Це не перша екранізація популярної п'єси Фредеріка Нотта. Перша вийшла на телебаченні двома роками раніше. Пізніше п'єса пройшла ще не через одну екранну адаптацію — особливо варто відзначити радянський варіант під назвою «Помилка Тоні Вендіса» (1981) і стрічку Ендрю Девіса «Ідеальне вбивство» (1998), де головний герой став мільйонером, якого не хвилює фінансовий аспект, він просто мститься дружині за те, що вона його зрадила.
-Це перший стереоскопічний фільм Гічкока.
-На початку фільму героїня Грейс Келлі з'являється у світлому вбранні. З розвитком подій п'єси колір її суконь поступово тьмяніє.
-Фільм знятий лише за 36 днів, що досить швидко для Гічкока.

Знімальна група:

Режисер: Альфред Гічкок
Сценарій: Фредерік Нотт
Продюсер: Альфред Гічкок
Оператор: Роберт Беркс
Художники: Едвард Каррере, Джордж Джеймс Гопкінс
Композитор: Дмитро Тьомкін
Монтаж: Руді Фер
Костюми: Мосс Мабрі


Тривалість: 01:45:24
Якість: Remux 1080p
Відео:
кодек:
розмір кадру: 1920 х 1080
бітрейт: 29,9 Mб/с

Аудіо # 1:
мова: українська
переклад: багатоголосий закадровий
кодек: 1.0
бітрейт: 224 кб/с
Джерело озвучення:
ТО "Цікава ідея" на замовлення Hurtom.com
Про озвучення:

Українське озвучення створено студією ТО "Цікава ідея" на замовлення Hurtom.com в рамках проекту "Хочеш кіно українською? Замовляй!"



Дякуємо користувачам, що фінансово допомогли проекту:
Медяник, AlGor-1, deepzb11, Alien8, Hadron, OLENOCHKA1980, cheks, bordiur4yk, MarianB, foevtcov, Triffid, Назар Хочубий, Sheldon, maryana, Ялина, Arijl, andryk, ponedilok, Bushido, Sergo_k_s_v, slava_4, rudchenkos, Nazz80, deepfree, seitar, Yelovbasted, Тарас12, MisterR, MutuLI, willian, Dim-ON, victor_v, Skif3, at3s, vilnui, IvanB123456, cyclone2000, yarik_ratnik, Beneverfearful, kivan, virtus8hur, JoaJoa16, danyshtv, Aussie, Лунсар, nemos, sash.kr, Rost3, krotyk, nemos, stalker_cv, Demetrios, kino., Dars, NemoInFire, somnambula, sania2011, ppk21, Violator, freshwind
Також дякуємо 110 користувачам, що надали фінансову допомогу, але побажали бути анонімними.

Детальніше про проект.
Аудіо # 2:
мова: англійська
переклад: оригінал
кодек: -HD MA 1.0
бітрейт: 1032 кб/с

Субтитри: (Full)
мова: англійська
тип: програмні (м'які)
формат: *.srt
Info
General
Unique ID : 264951563926670576322843859462254130690 (0xC753D0A8F15209AD10FB6FEE81CA7602)
Complete name : I:\+Режисер Альфред Гічкок [Alfred Hitchcock]\Dial M for Murder (1954) Remux 1080p UkrEng Sub Eng [Hurtom].
Format :
Format version : Version 4
File size : 23.0 GiB
Duration : 1 h 45 min
Overall bit rate mode : Variable
Overall bit rate : 31.2 Mb/s
Movie name : У випадку вбивства телефонуйте "М" / Dial M for Murder (1954) Remux 1080p Ukr/Eng | Sub Eng [Hurtom]
Encoded date : UTC 2019-11-20 22:32:41
Writing application : v25.0.0 ('Prog Noir') 64-bit
Writing library : libebml v1.3.6 + v1.4.9
Cover : Yes
Attachments : cover.jpg

Video
ID : 1
Format : AVC
Format/Info : Advanced Video Codec
Format profile : [email protected]
Format settings : CABAC / 2 Ref Frames
Format settings, CABAC : Yes
Format settings, Reference fra : 2 frames
Format settings, GOP : M=1, N=10
Codec ID : V_MPEG4/ISO/AVC
Duration : 1 h 45 min
Bit rate mode : Variable
Bit rate : 29.9 Mb/s
Width : 1 920 pixels
Height : 1 080 pixels
Display aspect ratio : 16:9
Frame rate mode : Constant
Frame rate : 23.976 (24000/1001) FPS
Color space : YUV
Chroma subsampling : 4:2:0
Bit depth : 8 bits
Scan type : Progressive
Bits/(Pixel*Frame) : 0.602
Stream size : 22.0 GiB (96%)
Title : Dial M for Murder (1954) Remux 1080p Ukr/Eng | Sub Eng [Hurtom]
Language : Ukrainian
Default : Yes
Forced : Yes

Audio #1
ID : 2
Format : AC-3
Format/Info : Audio Coding 3
Commercial name : Dolby Digital
Codec ID : A_AC3
Duration : 1 h 45 min
Bit rate mode : Constant
Bit rate : 224 kb/s
Channel(s) : 1 channel
Channel layout : C
Sampling rate : 48.0 kHz
Frame rate : 31.250 FPS (1536 SPF)
Bit depth : 16 bits
Compression mode : Lossy
Stream size : 169 MiB (1%)
Title : MVO [Цікава Ідея] 1.0 | на замовлення HURTOM.COM
Language : Ukrainian
Service kind : Complete Main
Default : Yes
Forced : Yes

Audio #2
ID : 3
Format : XLL
Format/Info : Digital Theater Systems
Commercial name : -HD Master Audio
Codec ID : A_DTS
Duration : 1 h 45 min
Bit rate mode : Variable
Bit rate : 1 032 kb/s
Channel(s) : 1 channel
Channel layout : C
Sampling rate : 48.0 kHz
Frame rate : 93.750 FPS (512 SPF)
Bit depth : 24 bits
Compression mode : Lossless
Stream size : 778 MiB (3%)
Title : Original -HD MA 1.0
Language : English
Default : No
Forced : No

Text
ID : 4
Format : UTF-8
Codec ID : S_TEXT/UTF8
Codec ID/Info : UTF-8 Plain Text
Duration : 1 h 44 min
Bit rate : 92 b/s
Count of elements : 1722
Stream size : 70.1 KiB (0%)
Title : Eng (Full)
Language : English
Default : No
Forced : No

Menu
00:00:00.000 : en:00:00:00.000
00:05:00.000 : en:00:05:00.000
00:10:00.000 : en:00:10:00.000
00:15:00.000 : en:00:15:00.000
00:20:00.000 : en:00:20:00.000
00:25:00.000 : en:00:25:00.000
00:30:00.000 : en:00:30:00.000
00:35:00.000 : en:00:35:00.000
00:40:00.000 : en:00:40:00.000
00:45:00.000 : en:00:45:00.000
00:50:00.000 : en:00:50:00.000
00:55:00.000 : en:00:55:00.000
01:00:00.000 : en:01:00:00.000
01:05:00.000 : en:01:05:00.000
01:10:00.000 : en:01:10:00.000
01:15:00.000 : en:01:15:00.000
01:20:00.000 : en:01:20:00.000
01:25:00.000 : en:01:25:00.000
01:30:00.000 : en:01:30:00.000
01:35:00.000 : en:01:35:00.000
01:40:00.000 : en:01:40:00.000
01:45:00.000 : en:01:45:00.000
Скріншоти
Джерело: &
За українізацію використаного постеру подяка п. bober-mober
Особиста оцінка: 10 - без зайвих вагань рекомендую всім!


Авторський реліз (завантажувати можна без реєстрації)
 Трекер:    Зареєстрований   

Завантажити / скачати фільм українською



відео для новачків



 Зареєстрований:   2019-11-21 02:56
 Розмір:   22.96 GB 
 Оцінка фільму:   10/10 (Голосів: 10)
   
Ваш часовий пояс: GMT + 2 Години

Нова тема   Відповісти