Плюс один / Plus One (2019) Remux 1080p Ukr/Eng | Sub Eng

Нові коментарі

Нова тема   Відповісти
Автор Повідомлення
Anonymous 







2019-11-20 22:23  
Плюс один / Plus One (2019) Remux 1080p Ukr/Eng | Sub Eng


Жанр: драма, комедія, мелодрама
Країна: США



Кінокомпанія: Red Hour Films, Studio71, Firewatch
Режисер: Джефф Чан, Ендрю Раймер
Актори: Майя Ерскін, Джек Квейд, Ед Беглі мол., Алекс Анфанджер, Дженніфер Бартельс, Джон БассЕмма Белл, Бек Беннетт

Сюжет:
Літо - пора весіль. Закоренілий холостяк Бен та його подруга Еліс, яка тільки що розлучилася зі своїм хлопцем, запрошені відразу на десять весіль. Щоб не шукати плюс один, вони вирішують прикинутися закоханою парою. Чи вдасться їм встояти перед магією сексу навколо і залишитися друзями?


Тривалість: 01:38:31
Якість: Remux 1080p
Відео:
кодек:
розмір кадру: 1920 x 1080
бітрейт: 20,9 Мб/с

Аудіо # 1:
мова: українська
переклад: професійний дубльований
кодек: 2.0 (стерео)
бітрейт: 192 кб/с

Аудіо # 2:
мова: англійська
переклад: оригінал
кодек: 5.1
бітрейт: 448 кб/с

Аудіо # 3:
мова: англійська
переклад: оригінал
кодек: -HD MAster 5.1
бітрейт: 3531 кб/с

Субтитри (Full, SDH):
мова: англійська
тип: програмні (м'які)
формат: *.srt
Info
Код:
General
Complete name                            : Plus One (2019) Blu-Ray Remux 1080p [ukr,eng] [ViDeO_Hurtom].
Format                                   :
Format version                           : Version 4
File size                                : 17.3 GiB
Duration                                 : 1 h 38 min
Overall bit rate mode                    : Variable
Overall bit rate                         : 25.1 Mb/s
Movie name                               : Plus One (2019) Blu-Ray Remux 1080p [ukr,eng] [ViDeO_Hurtom]
Encoded date                             : UTC 2019-11-20 14:32:51
Writing application                      : v30.1.0 ('Forever And More') 64-bit
Writing library                          : libebml v1.3.6 + v1.4.9
Cover                                    : Yes
Attachments                              : cover.jpg

Video
ID                                       : 1
Format                                   : AVC
Format/Info                              : Advanced Video Codec
Format profile                           : [email protected]
Format settings                          : CABAC / 4 Ref Frames
Format settings, CABAC                   : Yes
Format settings, RefFrames               : 4 frames
Codec ID                                 : V_MPEG4/ISO/AVC
Duration                                 : 1 h 38 min
Bit rate mode                            : Variable
Bit rate                                 : 20.9 Mb/s
Maximum bit rate                         : 36.0 Mb/s
Width                                    : 1 920 pixels
Height                                   : 1 080 pixels
Display aspect ratio                     : 16:9
Frame rate mode                          : Constant
Frame rate                               : 23.976 (24000/1001) FPS
Color space                              : YUV
Chroma subsampling                       : 4:2:0
Bit depth                                : 8 bits
Scan type                                : Progressive
Bits/(Pixel*Frame)                       : 0.421
Stream size                              : 14.4 GiB (83%)
Title                                    : Plus.One.2019.Remux 1080p
Default                                  : No
Forced                                   : No

Audio #1
ID                                       : 2
Format                                   : AC-3
Format/Info                              : Audio Coding 3
Commercial name                          : Dolby Digital
Codec ID                                 : A_AC3
Duration                                 : 1 h 38 min
Bit rate mode                            : Constant
Bit rate                                 : 192 kb/s
Channel(s)                               : 2 channels
Channel layout                           : L R
Sampling rate                            : 48.0 kHz
Frame rate                               : 31.250 FPS (1536 SPF)
Bit depth                                : 16 bits
Compression mode                         : Lossy
Stream size                              : 135 MiB (1%)
Title                                    : , 2 ch, 192 Кбт/с
Language                                 : Ukrainian
Service kind                             : Complete Main
Default                                  : Yes
Forced                                   : No

Audio #2
ID                                       : 3
Format                                   : AC-3
Format/Info                              : Audio Coding 3
Commercial name                          : Dolby Digital
Codec ID                                 : A_AC3
Duration                                 : 1 h 38 min
Bit rate mode                            : Constant
Bit rate                                 : 448 kb/s
Channel(s)                               : 6 channels
Channel layout                           : L R C LFE Ls Rs
Sampling rate                            : 48.0 kHz
Frame rate                               : 31.250 FPS (1536 SPF)
Bit depth                                : 16 bits
Compression mode                         : Lossy
Stream size                              : 316 MiB (2%)
Title                                    : , 6 ch, 448 Кбт/с
Language                                 : English
Service kind                             : Complete Main
Default                                  : No
Forced                                   : No

Audio #3
ID                                       : 4
Format                                   : XLL
Format/Info                              : Digital Theater Systems
Commercial name                          : -HD Master Audio
Codec ID                                 : A_DTS
Duration                                 : 1 h 38 min
Bit rate mode                            : Variable
Bit rate                                 : 3 531 kb/s
Channel(s)                               : 6 channels
Channel layout                           : C L R Ls Rs LFE
Sampling rate                            : 48.0 kHz
Frame rate                               : 93.750 FPS (512 SPF)
Bit depth                                : 24 bits
Compression mode                         : Lossless
Stream size                              : 2.43 GiB (14%)
Title                                    : -HD MA, 6 ch, 3531 Кбт/с
Language                                 : English
Default                                  : No
Forced                                   : No

Text #1
ID                                       : 5
Format                                   : UTF-8
Codec ID                                 : S_TEXT/UTF8
Codec ID/Info                            : UTF-8 Plain Text
Duration                                 : 1 h 36 min
Bit rate                                 : 90 b/s
Count of elements                        : 2179
Stream size                              : 64.4 KiB (0%)
Title                                    : Full
Language                                 : English
Default                                  : No
Forced                                   : No

Text #2
ID                                       : 6
Format                                   : UTF-8
Codec ID                                 : S_TEXT/UTF8
Codec ID/Info                            : UTF-8 Plain Text
Duration                                 : 1 h 37 min
Bit rate                                 : 97 b/s
Count of elements                        : 2322
Stream size                              : 69.1 KiB (0%)
Title                                    : SDH
Language                                 : English
Default                                  : No
Forced                                   : No

Menu
00:00:00.000                             : :Chapter 01
00:07:10.263                             : :Chapter 02
00:14:02.425                             : :Chapter 03
00:24:10.324                             : :Chapter 04
00:32:50.468                             : :Chapter 05
00:50:10.299                             : :Chapter 06
01:17:48.455                             : :Chapter 07
01:34:42.010                             : :Chapter 08
Скріншоти
Джерело:
Особиста оцінка: 8 - мені сподобалося


Золотий реліз (завантажене не впливає на рейтинг)
 Трекер:    Зареєстрований   

Завантажити / скачати фільм українською



відео для новачків



 Зареєстрований:   2019-11-20 22:23
 Розмір:   17.27 GB 
 Оцінка фільму:   8.6/10 (Голосів: 9)
   
Інші релізи
   Плюс один / Plus One (2019) 1080p H.265 Ukr/Eng | Sub Eng -Star-Lord-  5 / 0   5.9 GB   2019-11-27 13:19 
   Плюс один / Plus One (2019) 1080p Ukr/Eng | Sub Eng staf777  14 / 0   5.52 GB   2019-11-20 18:20 
   Плюс один / Plus One (2019) Ukr/Eng antik_2008  17 / 0   1.6 GB   2019-11-20 15:57 
   Плюс один / Plus One (2019) 720p Ukr/Eng | Sub Eng 11FrYkT  6 / 0   3.03 GB   2019-11-20 12:21 
   Плюс один / Plus One (2019) AVC Ukr/Eng | Sub Eng 11FrYkT  18 / 0   1.69 GB   2019-11-20 12:21 
1985god 
Частий відвідувач


З нами з: 27.10.09
Востаннє: 06.10.20
Повідомлень: 43

2020-01-08 16:06  
дякую !!!
Ваш часовий пояс: GMT + 2 Години

Нова тема   Відповісти