Мамця (Сезон 4) / Mom (Season 4) (2016-2017) 1080p Ukr/Eng | Sub Eng

Нові коментарі

Нова тема   Відповісти
Автор Повідомлення
Anonymous 







2019-11-20 20:35  
Мамця (Сезон 4) / Mom (Season 4) (2016-2017) 1080p Ukr/Eng | Sub Eng

Мамця (Сезон 4) / Mom (Season 4) (2016-2017) 1080p Ukr/Eng | Sub Eng


Жанр: комедія, драма, романтичний
Країна: США



Кінокомпанія: Chuck Lorre Productions, Warner Bros. Television
Режисер: Джемма Бейкер (Gemma Baker), Едді Ґородецький (Eddie Gorodetsky), Чак Лоррі (Chuck Lorre)
Актори: Анна Фаріс (Anna Faris), Еллісон Дженні (Allison Janney), Джеймі Преслі (Jaime Pressly), Саді Кальвано (Sadie Calvano), Мімі Кенеді (Mimi Kennedy) та інші

Сюжет:
Крісті - мати-одиначка, яка виховує двох дітей і намагається побороти алкогольну залежність. Щоб прогодувати свою сім'ю, вона влаштувалася офіціанткою в місцевий ресторан, де у неї зав'язалися стосунки з начальником Габріелем. Постійний тиск на неї чинить власна мати, яка також є колишньою алкоголічкою. Крісті постійно стикається з проблемами в житті: старша дочка почала жити дорослим життям, колишній чоловік постійно намагається підставити її, новий коханець виявився одруженим. Крісті намагається у всьому поганому знайти щось хороше, що допомагає їй стати сильною людиною, яка готова пройти будь-які випробування, що виникають на її шляху.


Тривалість: 1 серія: ~18 хв. (цілком серій: 22)
Перелік серій
01) High-Tops and Brown Jacket
02) Sword Fights and a Dominican Shortstop
03) Sparkling Water and Ba-Dinkers
04) Curious George and the Big Red Nightmare
05) Blow and a Free McMuffin
06) Xanax and a Baby Duck
07) Cornbread and a Cashmere Onesie
08) Freckled Bananas and a Little Schwinn
09) Bad Hand and British Royalty
10) A Safe Word and a Rib Eye
11) Good Karma and the Big Weird
12) Wind Chimes and a Bottomless Pit of Sadness
13) A Bouncy Castle and an Aneurysm
14) Roast Chicken and a Funny Story
15) Night Swimmin' and an English Muffin
16) Martinis and a Sponge Bath
17) Black Mold and an Old Hot Dog
18) Tush Push and Some Radishes
19) Tantric Sex and the Sprouted Flute
20) A Cricket and a Hedge Made of Gold
21) A Few Thongs and a Hawaiian Funeral
22) Lockjaw and a Liquid Diet
Якість: [Amazon]
Відео:
кодек:
розмір кадру: 1920 х 1080
бітрейт: ~9 мб/с

Аудіо # 1:
мова: українська
переклад: багатоголосий закадровий | Paramount Comedy
кодек: 2.0
бітрейт: 192 кб/с

Аудіо # 2:
мова: англійська
переклад: оригінал
кодек: 5.1
бітрейт: 640 кб/с

Субтитри:
мова: англійська
тип: програмні (м'які)
формат: *.srt
Info
General
Unique ID : 307685896591984094053830689471958369060 (0xE77A25EE8C74EEE5FAA7A15645304324)
Complete name : E:\Support\Mom (Season 4) [, 1080p, Ukr, Eng]\Mom. s04e01. High-Tops and Brown Jacket.
Format :
Format version : Version 4
File size : 1.19 GiB
Duration : 17 min 43 s
Overall bit rate mode : Variable
Overall bit rate : 9 607 kb/s
Encoded date : UTC 2019-11-10 19:28:25
Writing application : v40.0.0 ('Old Town Road + Pony') 64-bit
Writing library : libebml v1.3.9 + v1.5.2

Video
ID : 1
Format : AVC
Format/Info : Advanced Video Codec
Format profile : [email protected]
Format settings : CABAC / 4 Ref Frames
Format settings, CABAC : Yes
Format settings, Reference : 4 frames
Codec ID : V_MPEG4/ISO/AVC
Duration : 17 min 43 s
Bit rate mode : Variable
Bit rate : 8 772 kb/s
Maximum bit rate : 15.0 Mb/s
Width : 1 920 pixels
Height : 1 080 pixels
Display aspect ratio : 16:9
Frame rate mode : Constant
Frame rate : 25.000 FPS
Original frame rate : 23.976 (24000/1001) FPS
Color space : YUV
Chroma subsampling : 4:2:0
Bit depth : 8 bits
Scan type : Progressive
Bits/(Pixel*Frame) : 0.169
Stream size : 1.09 GiB (91%)
Language : English
Default : Yes
Forced : No
Color range : Limited
Color primaries : BT.709
Transfer characteristics : BT.709
Matrix coefficients : BT.709

Audio #1
ID : 2
Format : AC-3
Format/Info : Audio Coding 3
Commercial name : Dolby Digital
Codec ID : A_AC3
Duration : 17 min 43 s
Bit rate mode : Constant
Bit rate : 192 kb/s
Channel(s) : 2 channels
Channel layout : L R
Sampling rate : 48.0 kHz
Frame rate : 31.250 FPS (1536 SPF)
Compression mode : Lossy
Stream size : 24.3 MiB (2%)
Title : Paramount Comedy
Language : Ukrainian
Service kind : Complete Main
Default : Yes
Forced : No

Audio #2
ID : 3
Format : AC-3
Format/Info : Audio Coding 3
Commercial name : Dolby Digital
Codec ID : A_AC3
Duration : 17 min 43 s
Bit rate mode : Constant
Bit rate : 640 kb/s
Channel(s) : 6 channels
Channel layout : L R C LFE Ls Rs
Sampling rate : 48.0 kHz
Frame rate : 31.250 FPS (1536 SPF)
Compression mode : Lossy
Stream size : 81.1 MiB (7%)
Language : English
Service kind : Complete Main
Default : No
Forced : No

Text
ID : 4
Format : UTF-8
Codec ID : S_TEXT/UTF8
Codec ID/Info : UTF-8 Plain Text
Duration : 17 min 8 s
Bit rate : 100 b/s
Count of elements : 403
Stream size : 12.6 KiB (0%)
Language : English
Default : No
Forced : No
Скріншоти
Джерело: &
Особиста оцінка: 0 - не дивився





Бронзовий реліз (на рейтинг впливає 75% завантаженого)
 Трекер:    Зареєстрований   

Завантажити / скачати серіал українською



відео для новачків



 Зареєстрований:   2019-11-20 20:35
 Розмір:   29.57 GB 
 Оцінка серіалу:   9.9/10 (Голосів: 12)
   
grimson32 
Свій


З нами з: 03.04.12
Востаннє: 02.12.20
Повідомлень: 92

2019-11-21 08:48  
Дякую. Підкажіть,будь ласка, чи буде реліз меньшого розміру?
Anonymous 







2019-11-21 09:00  
grimson32 написано:
Підкажіть,будь ласка, чи буде реліз меньшого розміру?

Від мене - ні, за інших казати не можу.

vicus 
Новенький


З нами з: 17.01.10
Востаннє: 29.11.20
Повідомлень: 1

2019-11-24 22:04  
Дуже дякую! Класний серіал! А будуть 5-7 сезони?
Anonymous 







2019-11-24 22:06  
vicus написано:
А будуть 5-7 сезони?

П'ятий сезон Paramount Comedy вже показує, буде місяці за три. Решта теж колись має бути.

leicheman 
Відео Гуртом - фільмокрай
Відео Гуртом - фільмокрай


З нами з: 03.07.14
Востаннє: 02.12.20
Повідомлень: 5702

2020-02-01 16:31  
Anonymous написано:
П'ятий сезон Paramount Comedy вже показує, буде місяці за три.

схоже, що на наступному тижні покажуть останню 22, якщо ще не показали раніше))

0mage0 
VIP


З нами з: 06.10.15
Востаннє: 02.12.20
Повідомлень: 709

2020-04-03 21:00  
Черговий сезон мамці й чергова порція сміху. Серіал як завжди на висоті. Дивимося наступний сезон.
З перекладом, як завжди, не все так райдужно, аж до вживання слова "відмінити", що, як відомо, є смертним гріхом.

Anonymous 







2020-04-03 21:07  
0mage0 написано:
аж до вживання слова "відмінити"

Це вже норма, звикай.

0mage0 
VIP


З нами з: 06.10.15
Востаннє: 02.12.20
Повідомлень: 709

2020-04-04 08:17  
Anonymous написано:
Це вже норма, звикай.

Не хочу, це однаково, що розмовляти московською балачкою. За що ми боремося тоді?

Ваш часовий пояс: GMT + 2 Години

Нова тема   Відповісти