Коко / Coco (2017) 1080p H.265 Ukr/Eng | Sub Eng

Нові коментарі

Нова тема   Відповісти
Автор Повідомлення
Anonymous 







2019-11-20 10:19  
Коко / Coco (2017) 1080p H.265 Ukr/Eng | Sub Eng

Коко / Coco (2017) 1080p H.265 Ukr/Eng | Sub Eng


Жанр: анімація, комедія, пригодницький
Країна: США
Кінокомпанія: Walt Disney Pictures, Pixar Animation Studios
Режисер: Лі Анкріч, Адріан Моліна
Актори: Ентоні Гонсалес, Ґаель Ґарсіа Берналь, Бенджамін Бретт, Рені Віктор, Аланна Юбак, Хайме Каміль, Гебріел Іглесіас, Альфонсо Арау, Херберт Сіґенса, Едвард Джеймс Олмос та інші

Сюжет:
Події мультфільму розгортаються тоді, коли в Мексиці відзначається День мертвих. Всі могили на кладовищах прикрашені квітами та стрічками, а дороги освітлюються спеціальними ліхтариками та свічками. 12-річний хлопчик Мігель дуже хоче займатися музикою. Але в їхній родині така діяльність вважається прокляттям і йому на роду написано стати шевцем. Тільки один день в році зв'язок зі світом мертвих стає можливим і хлопчик спробує дізнатися у своїх предків те, що його хвилює найбільше – чи зможе він стати справжнім музикантом.

Тривалість: 01:45:01
Якість:

Відео:
кодек: H.265 (HEVC)
розмір кадру: 1920 x 804
бітрейт: 5 314 кб/с
бітова глибина: 10 біт

Увага! Перед завантаженням переконайтесь, що ваш пристрій відтворення (та/або ПЗ) підтримує H.265 (HEVC)

Аудіо # 1:
мова: українська
переклад: професійний дубльований
кодек: 5.1
бітрейт: 1510 кб/с

Аудіо # 2:
мова: англійська
переклад: оригінал
кодек: AC-3 5.1
бітрейт: 640 кб/с

Субтитри # 1: (Forced)
мова: українська
тип: програмні (м'які)
формат: *.srt

Субтитри # 2-3: (Full, SDH)
мова: англійська
тип: програмні (м'які)
формат: *.srt


Info
Код:
General
Unique ID                                : 124448664471498217059362023674464139561 (0x5D9FF0E1BC8C1B77DAF49DE678637929)
Complete name                            : Coco (2017) 1080p H.265 [UKR_ENG] [Hurtom].
Format                                   :
Format version                           : Version 4
File size                                : 5.48 GiB
Duration                                 : 1 h 45 min
Overall bit rate                         : 7 466 kb/s
Movie name                               : Коко / Coco (2017)
Encoded date                             : UTC 2019-11-20 08:15:35
Writing application                      : v20.0.0 ('I Am The Sun') 64-bit
Writing library                          : libebml v1.3.5 + v1.4.8
Cover                                    : Yes
Attachments                              : Cover.jpg

Video
ID                                       : 1
Format                                   : HEVC
Format/Info                              : High Efficiency Video Coding
Format profile                           : Main [email protected]@High
Codec ID                                 : V_MPEGH/ISO/HEVC
Duration                                 : 1 h 45 min
Bit rate                                 : 5 314 kb/s
Width                                    : 1 920 pixels
Height                                   : 804 pixels
Display aspect ratio                     : 2.40:1
Frame rate mode                          : Constant
Frame rate                               : 23.976 (23976/1000) FPS
Original frame rate                      : 23.976 (24000/1001) FPS
Color space                              : YUV
Chroma subsampling                       : 4:2:0
Bit depth                                : 10 bits
Bits/(Pixel*Frame)                       : 0.144
Stream size                              : 3.90 GiB (71%)
Title                                    : Коко / Coco (2017)
Writing library                          : x265 3.2.1+1-b5c86a64bbbe:[Windows][MSVC 1923][64 bit] 10bit
Encoding settings                        : cpuid=1111039 / frame-threads=3 / numa-pools=12 / wpp / no-pmode / no-pme / no-psnr / no-ssim / log-level=2 / input-csp=1 / input-res=1920x804 / interlace=0 / total-frames=151096 / level-idc=41 / high-tier=1 / uhd-bd=0 / ref=5 / no-allow-non-conformance / no-repeat-headers / annexb / no-aud / no-hrd / info / hash=0 / no-temporal-layers / open-gop / min-keyint=23 / keyint=240 / gop-lookahead=0 / bframes=9 / b-adapt=2 / b-pyramid / bframe-bias=0 / rc-lookahead=60 / lookahead-slices=4 / scenecut=40 / radl=0 / no-splice / no-intra-refresh / ctu=32 / min-cu-size=8 / rect / amp / max-tu-size=32 / tu-inter-depth=4 / tu-intra-depth=4 / limit-tu=1 / rdoq-level=2 / dynamic-rd=0.00 / no-ssim-rd / signhide / no-tskip / nr-intra=0 / nr-inter=0 / no-constrained-intra / no-strong-intra-smoothing / max-merge=4 / limit-refs=2 / limit-modes / me=3 / subme=7 / merange=57 / temporal-mvp / no-hme / weightp / weightb / no-analyze-src-pics / deblock=-3:-3 / no-sao / no-sao-non-deblock / rd=6 / selective-sao=0 / no-early-skip / no-rskip / no-fast-intra / no-tskip-fast / no-cu-lossless / no-b-intra / no-splitrd-skip / rdpenalty=0 / psy-rd=2.00 / psy-rdoq=1.00 / no-rd-refine / no-lossless / cbqpoffs=0 / crqpoffs=0 / rc=crf / crf=20.0 / qcomp=0.65 / qpstep=4 / stats-write=0 / stats-read=0 / vbv-maxrate=50000 / vbv-bufsize=50000 / vbv-init=0.9 / crf-max=0.0 / crf-min=0.0 / ipratio=1.40 / pbratio=1.30 / aq-mode=1 / aq-strength=1.00 / no-cutree / zone-count=0 / no-strict-cbr / qg-size=32 / no-rc-grain / qpmax=69 / qpmin=0 / no-const-vbv / sar=1 / overscan=0 / videoformat=5 / range=0 / colorprim=1 / transfer=1 / colormatrix=1 / chromaloc=0 / display-window=0 / cll=0,0 / min-luma=0 / max-luma=1023 / log2-max-poc-lsb=8 / vui-timing-info / vui-hrd-info / slices=1 / no-opt-qp-pps / no-opt-ref-list-length-pps / no-multi-pass-opt-rps / scenecut-bias=0.05 / no-opt-cu-delta-qp / no-aq-motion / no-hdr / no-hdr-opt / no-dhdr10-opt / no-idr-recovery-sei / analysis-reuse-level=5 / scale-factor=0 / refine-intra=0 / refine-inter=0 / refine-mv=1 / refine-ctu-distortion=0 / no-limit-sao / ctu-info=0 / no-lowpass-dct / refine-analysis-type=0 / copy-pic=1 / max-ausize-factor=1.0 / no-dynamic-refine / no-single-sei / no-hevc-aq / no-svt / no-field / qp-adaptation-range=1.00
Default                                  : Yes
Forced                                   : No
Color range                              : Limited
Color primaries                          : BT.709
Transfer characteristics                 : BT.709
Matrix coefficients                      : BT.709

Audio #1
ID                                       : 2
Format                                   :
Format/Info                              : Digital Theater Systems
Codec ID                                 : A_DTS
Duration                                 : 1 h 45 min
Bit rate mode                            : Constant
Bit rate                                 : 1 509 kb/s
Channel(s)                               : 6 channels
Channel layout                           : C L R Ls Rs LFE
Sampling rate                            : 48.0 kHz
Frame rate                               : 93.750 FPS (512 SPF)
Bit depth                                : 24 bits
Compression mode                         : Lossy
Stream size                              : 1.11 GiB (20%)
Title                                    : / 5.1 Ch / 1509 kbps / ПД
Language                                 : Ukrainian
Default                                  : Yes
Forced                                   : Yes

Audio #2
ID                                       : 3
Format                                   : AC-3
Format/Info                              : Audio Coding 3
Commercial name                          : Dolby Digital
Codec ID                                 : A_AC3
Duration                                 : 1 h 45 min
Bit rate mode                            : Constant
Bit rate                                 : 640 kb/s
Channel(s)                               : 6 channels
Channel layout                           : L R C LFE Ls Rs
Sampling rate                            : 48.0 kHz
Frame rate                               : 31.250 FPS (1536 SPF)
Bit depth                                : 16 bits
Compression mode                         : Lossy
Stream size                              : 481 MiB (9%)
Title                                    : / 5.1 Ch / 640 kbps / Original
Language                                 : English
Service kind                             : Complete Main
Default                                  : No
Forced                                   : No

Text #1
ID                                       : 4
Format                                   : UTF-8
Codec ID                                 : S_TEXT/UTF8
Codec ID/Info                            : UTF-8 Plain Text
Duration                                 : 2 s 1 ms
Bit rate                                 : 127 b/s
Count of elements                        : 1
Stream size                              : 32.0 Bytes (0%)
Title                                    : Forced
Language                                 : Ukrainian
Default                                  : Yes
Forced                                   : Yes

Text #2
ID                                       : 5
Format                                   : UTF-8
Codec ID                                 : S_TEXT/UTF8
Codec ID/Info                            : UTF-8 Plain Text
Duration                                 : 1 h 37 min
Bit rate                                 : 63 b/s
Count of elements                        : 1441
Stream size                              : 45.6 KiB (0%)
Title                                    : Full
Language                                 : English
Default                                  : No
Forced                                   : No

Text #3
ID                                       : 6
Format                                   : UTF-8
Codec ID                                 : S_TEXT/UTF8
Codec ID/Info                            : UTF-8 Plain Text
Duration                                 : 1 h 38 min
Bit rate                                 : 77 b/s
Count of elements                        : 1722
Stream size                              : 55.9 KiB (0%)
Title                                    : SDH
Language                                 : English
Default                                  : No
Forced                                   : No

Menu
00:00:00.000                             : en:Chapter 1
00:06:40.191                             : en:Chapter 2
00:08:41.520                             : en:Chapter 3
00:11:13.589                             : en:Chapter 4
00:14:20.317                             : en:Chapter 5
00:17:06.942                             : en:Chapter 6
00:18:20.933                             : en:Chapter 7
00:22:05.991                             : en:Chapter 8
00:24:19.958                             : en:Chapter 9
00:27:44.829                             : en:Chapter 10
00:29:07.912                             : en:Chapter 11
00:32:15.308                             : en:Chapter 12
00:35:18.407                             : en:Chapter 13
00:41:25.524                             : en:Chapter 14
00:47:04.696                             : en:Chapter 15
00:50:54.175                             : en:Chapter 16
00:54:23.885                             : en:Chapter 17
00:56:45.026                             : en:Chapter 18
01:01:42.615                             : en:Chapter 19
01:03:28.137                             : en:Chapter 20
01:08:58.217                             : en:Chapter 21
01:15:17.262                             : en:Chapter 22
01:18:56.773                             : en:Chapter 23
01:21:31.761                             : en:Chapter 24
01:24:31.816                             : en:Chapter 25
01:28:23.464                             : en:Chapter 26
01:33:14.755                             : en:Chapter 27
01:36:10.472                             : en:Chapter 28
Світлини




Джерело: &
Особиста оцінка: 0 - не дивився


 Трекер:    Зареєстрований   

Завантажити / скачати мультфільм українською



відео для новачків



 Зареєстрований:   2019-11-20 10:19
 Розмір:   5.48 GB 
 Оцінка мультфільму:   9.9/10 (Голосів: 19)
   
Інші релізи
   Коко / Coco (2017) UHD Remux 2160p 4K HDR H.265 Ukr/Eng | Sub Eng Argentum  5 / 0   40.85 GB   2020-05-31 19:15 
   Коко / Coco (2017) Jatx_11  12 / 0   1.46 GB   2020-03-28 18:57 
   Коко на всі 100 / 100% Coco (2017) Ukr/Ger drop_plz  1 / 0   1.44 GB   2019-11-16 12:41 
   Коко / Coco (2017) Remux 1080p Ukr/Eng | Sub Eng staf777  10 / 0   24.85 GB   2018-05-06 18:40 
   Коко / Coco (2017) 1080p Ukr/Eng | Sub Eng Electroz  19 / 0   9.47 GB   2018-05-06 11:03 
   Коко / Coco (2017) 720p Ukr/Eng | Sub Eng 11FrYkT  7 / 0   6.38 GB   2018-05-06 09:49 
   Коко / Coco (2017) AVC Ukr/Eng | Sub Eng 11FrYkT  25 / 0   2.07 GB   2018-05-06 09:45 
   Коко / Coco (2017) Ukr/Eng 11FrYkT  2 / 0   2.18 GB   2018-05-06 09:39 
   Коко / Coco (2017) 720p (60 fps) Ukr/Eng | Sub Eng Drool  3 / 0   4.24 GB   2018-04-17 14:04 
bot 
робот


З нами з: 30.09.07
Востаннє: 26.05.05
Повідомлень: 26399

2019-11-20 10:20  
Тему перенесено з Фільми в HD до форуму Мультфільми в HD


-Star-Lord-

Anonymous 







2019-11-25 21:46  
Поглинання цього релізу - https://toloka.to/t88833
waldi-hurtom 
VIP


З нами з: 07.10.12
Востаннє: 26.11.20
Повідомлень: 1217

2020-02-18 20:22  
Найкращий мультфільм за багато років, як на мене, крутіший за японські. 10 балів. Дякую за реліз!
Ваш часовий пояс: GMT + 2 Години

Нова тема   Відповісти