Останній замок / The Last Castle (2001) 1080p 2xUkr/Eng | Sub Eng

Нові коментарі

Нова тема   Відповісти
Останній раз роздавалося pvm (2020-04-26)
Автор Повідомлення
Anonymous 







2019-11-20 02:03  
Останній замок / The Last Castle (2001) 1080p 2xUkr/Eng | Sub Eng

Останній замок / The Last Castle (2001) 1080p 2xUkr/Eng | Sub Eng


Жанр: драма, трилер, пригодницький
Країна: США
Кінокомпанія: DreamWorks SKG, Robert Lawrence Productions
Режисер: Род Лурі / Rod Lurie
Актори: Роберт Редфорд / Robert Redford, Джеймс Гандольфіні / James Gandolfini, Марк Руффало / Mark Ruffalo, Делрой Ліндо / Delroy Lindo, Стів Бертон / Steve Burton, Пол Келдерон / Paul Calderon, Семюел Болл / Samuel Ball, Джеремі Чайлдз / Jeremy Childs, Кліфтон Коллінз мол. / Clifton Collins Jr.

Сюжет:
Сталося так, що генерал Ервін - заслужений солдат і ветеран багатьох воєн, який відслужив батьківщині вірою і правдою, став в'язнем тюрми суворого режиму. За всю свою кар'єру генерал припустився лише однієї невиправної помилки, яка обернулася для нього ганебним судом військового трибуналу й десятьма роками ув'язнення.

Але Юджин стійко прийняв цей удар долі. Змирившись зі своєю недолею, розжалуваний офіцер вступив у стіни в'язниці з єдиним наміром - відбути свій термін і повернутися додому. Але все склалося інакше... Ервін робить шокуюче відкриття: у в'язниці холоднокровно вбивають ув'язнених.

За цими кривавими злочинами стоїть жорстокий комендант тюрми - полковник Вінтер (Джеймс Гандольфіні). І тоді генерал вирішує прийняти на себе командування востаннє, ставши на чолі відчайдушного повстання розгніваних в'язнів...

Тривалість: 02:11:11
Якість:

Відео:
кодек:
розмір кадру: 1920 x 800
бітрейт: 10 714 кб/с

Аудіо # 1:
мова: українська
переклад: багатоголосий закадровий
кодек: AC-3 2.0
бітрейт: 192 кб/с

Аудіо # 2:
мова: українська
переклад: двоголосий закадровий
кодек: AC-3 5.1
бітрейт: 384 кб/с

Аудіо # 3:
мова: англійська
переклад: оригінал
кодек: E-AC-3 5.1
бітрейт: 640 кб/с

Субтитри # 1-2: (Full, SDH)
мова: англійська
тип: програмні (м'які)
формат: *.srt


Info
Код:
General
Unique ID                                : 336816976004115351538706616164302452621 (0xFD64970959BE8F62CA19B1295253F78D)
Complete name                            : The Last Castle (2001) 1080p [2xUKR_ENG] [Hurtom].
Format                                   :
Format version                           : Version 4
File size                                : 10.9 GiB
Duration                                 : 2 h 11 min
Overall bit rate mode                    : Variable
Overall bit rate                         : 11.9 Mb/s
Movie name                               : Останній замок / The Last Castle (2001)
Encoded date                             : UTC 2019-11-19 21:06:44
Writing application                      : v20.0.0 ('I Am The Sun') 64-bit
Writing library                          : libebml v1.3.5 + v1.4.8
Cover                                    : Yes
Attachments                              : Cover.jpg

Video
ID                                       : 1
Format                                   : AVC
Format/Info                              : Advanced Video Codec
Format profile                           : [email protected]
Format settings                          : CABAC / 4 Ref Frames
Format settings, CABAC                   : Yes
Format settings, Reference frames        : 4 frames
Codec ID                                 : V_MPEG4/ISO/AVC
Duration                                 : 2 h 11 min
Bit rate mode                            : Variable
Bit rate                                 : 10.7 Mb/s
Maximum bit rate                         : 15.0 Mb/s
Width                                    : 1 920 pixels
Height                                   : 800 pixels
Display aspect ratio                     : 2.40:1
Frame rate mode                          : Constant
Frame rate                               : 23.976 (24000/1001) FPS
Color space                              : YUV
Chroma subsampling                       : 4:2:0
Bit depth                                : 8 bits
Scan type                                : Progressive
Bits/(Pixel*Frame)                       : 0.291
Stream size                              : 9.82 GiB (90%)
Title                                    : Останній замок / The Last Castle (2001)
Language                                 : English
Default                                  : Yes
Forced                                   : No
Color range                              : Limited
Color primaries                          : BT.709
Transfer characteristics                 : BT.709
Matrix coefficients                      : BT.709

Audio #1
ID                                       : 2
Format                                   : AC-3
Format/Info                              : Audio Coding 3
Commercial name                          : Dolby Digital
Codec ID                                 : A_AC3
Duration                                 : 2 h 11 min
Bit rate mode                            : Constant
Bit rate                                 : 192 kb/s
Channel(s)                               : 2 channels
Channel layout                           : L R
Sampling rate                            : 48.0 kHz
Frame rate                               : 31.250 FPS (1536 SPF)
Bit depth                                : 16 bits
Compression mode                         : Lossy
Stream size                              : 180 MiB (2%)
Title                                    : / 2.0 Ch / 192 kbps / БЗ / Inter
Language                                 : Ukrainian
Service kind                             : Complete Main
Default                                  : Yes
Forced                                   : Yes

Audio #2
ID                                       : 3
Format                                   : AC-3
Format/Info                              : Audio Coding 3
Commercial name                          : Dolby Digital
Codec ID                                 : A_AC3
Duration                                 : 2 h 11 min
Bit rate mode                            : Constant
Bit rate                                 : 384 kb/s
Channel(s)                               : 6 channels
Channel layout                           : L R C LFE Ls Rs
Sampling rate                            : 48.0 kHz
Frame rate                               : 31.250 FPS (1536 SPF)
Bit depth                                : 16 bits
Compression mode                         : Lossy
Stream size                              : 360 MiB (3%)
Title                                    : / 5.1 Ch / 384 kbps / ДЗ / ICTV
Language                                 : Ukrainian
Service kind                             : Complete Main
Default                                  : No
Forced                                   : No

Audio #3
ID                                       : 4
Format                                   : E-AC-3
Format/Info                              : Enhanced AC-3
Commercial name                          : Dolby Digital Plus
Codec ID                                 : A_EAC3
Duration                                 : 2 h 11 min
Bit rate mode                            : Constant
Bit rate                                 : 640 kb/s
Channel(s)                               : 6 channels
Channel layout                           : L R C LFE Ls Rs
Sampling rate                            : 48.0 kHz
Frame rate                               : 31.250 FPS (1536 SPF)
Compression mode                         : Lossy
Stream size                              : 601 MiB (5%)
Title                                    : E- / 5.1 Ch / 640 kbps / Original
Language                                 : English
Service kind                             : Complete Main
Default                                  : No
Forced                                   : No

Text #1
ID                                       : 5
Format                                   : UTF-8
Codec ID                                 : S_TEXT/UTF8
Codec ID/Info                            : UTF-8 Plain Text
Duration                                 : 2 h 10 min
Bit rate                                 : 54 b/s
Count of elements                        : 1573
Stream size                              : 52.3 KiB (0%)
Title                                    : Full
Language                                 : English
Default                                  : No
Forced                                   : No

Text #2
ID                                       : 6
Format                                   : UTF-8
Codec ID                                 : S_TEXT/UTF8
Codec ID/Info                            : UTF-8 Plain Text
Duration                                 : 2 h 10 min
Bit rate                                 : 61 b/s
Count of elements                        : 1686
Stream size                              : 58.5 KiB (0%)
Title                                    : SDH
Language                                 : English
Default                                  : No
Forced                                   : No

Menu
00:00:00.000                             : :The Castle (Main Title)
00:06:03.000                             : :Prisoner Irwin
00:13:38.000                             : :One Basketball
00:17:55.000                             : :Rubber Bullets
00:23:09.000                             : :Visitation
00:28:12.000                             : :A Salute
00:35:49.000                             : :Rock and Roll Detail
00:43:27.000                             : :The Bookkeeper
00:46:39.000                             : :Building a Castle Wall
00:52:45.000                             : :Playing Soldier
00:57:44.000                             : :A Tribute to Aguilar
01:02:41.000                             : :Resignation Requested
01:07:29.000                             : :Hostage Situation
01:14:05.000                             : :Chess
01:19:03.000                             : :The Snitch
01:25:23.000                             : :Capture the Flag
01:32:16.000                             : :Ready to Play
01:37:13.000                             : :The Yard
01:43:14.000                             : :Phase 1: Deploy Troops
01:46:38.000                             : :Phase 2: Water Cannon
01:49:20.000                             : :Phase 3: Airborne
01:56:01.000                             : :It's Over
01:59:53.000                             : :Give Me My Flag
02:05:58.000                             : :End Credits
Світлини




Джерело: &
Особиста оцінка: 0 - не дивився


 Трекер:    Зареєстрований   

Завантажити / скачати фільм українською



відео для новачків



 Зареєстрований:   2019-11-20 02:03
 Розмір:   10.93 GB 
 Оцінка фільму:   10/10 (Голосів: 1)
   
Ваш часовий пояс: GMT + 2 Години

Нова тема   Відповісти