Чорна діра / Pitch Black (2000) 1080p] [Theatrical Cut, Open Matte] Ukr/Eng

Нові коментарі

Нова тема   Відповісти
Автор Повідомлення
Anonymous 







2019-11-19 19:47  
Чорна діра / Pitch Black (2000) 1080p] [Theatrical Cut, Open Matte] Ukr/Eng

Чорна діра / Pitch Black (2000) 1080p] [Theatrical Cut, Open Matte] Ukr/Eng


Жанр: фантастика, бойовик, трилер
Країна: США



Кінокомпанія: Universal Pictures
Режисер: Девід Туї / David Twohy
Актори: Він Дізель (Vin Diesel), Рада Мітчелл (Radha Mitchell), Кол Гаузер (Cole Hauser), Кеіт Девід (Keith David), Клаудія Блек (Claudia Black) та інші.

Сюжет:
У недалекому майбутньому космічний корабель здійснює вимушену посадку на віддаленій планеті. Але врезультаті такої посадки гине командир корабля, частина команди і більшість пасажирів. Ті, що залишилися в живих опиняються одні на страшній і млявій планеті. Перше, що впадає в очі - це те, що планета має три сонця, через що все живе гине в цій пустелі. Але як тільки планета занурюється в темряву, з'являються якісь дивні істоти...


Тривалість: 01:48:22
Якість:
Відео:
кодек:
розмір кадру: 1920 х 1080
бітрейт: 12700 кб/с

Аудіо # 1:
мова: українська
переклад: багатоголосий закадровий
кодек: 2.0
бітрейт: 224 кб/с

Аудіо # 2:
мова: англійська
переклад: оригінал
кодек: 5.1
бітрейт: 640 кб/с

Субтитри:
мова: російська
тип: програмні (м'які)
формат: *.srt

Субтитри:
мова: англійська
тип: програмні (м'які)
формат: *.srt
Info
Video
ID : 1
Format : AVC
Format/Info : Advanced Video Codec
Format profile : [email protected]
Format settings : CABAC / 4 Ref Frames
Format settings, CABAC : Yes
Format settings, Reference fra : 4 frames
Codec ID : V_MPEG4/ISO/AVC
Duration : 1 h 48 min
Bit rate mode : Variable
Bit rate : 12.7 Mb/s
Maximum bit rate : 15.0 Mb/s
Width : 1 920 pixels
Height : 1 080 pixels
Display aspect ratio : 16:9
Frame rate mode : Constant
Frame rate : 23.976 (24000/1001) FPS
Color space : YUV
Chroma subsampling : 4:2:0
Bit depth : 8 bits
Scan type : Progressive
Bits/(Pixel*Frame) : 0.255
Stream size : 9.61 GiB (94%)
Title : Pitch Black (Amazon)
Language : English
Default : Yes
Forced : No
Color range : Limited
Color primaries : BT.709
Transfer characteristics : BT.709
Matrix coefficients : BT.709

Audio #1
ID : 2
Format : AC-3
Format/Info : Audio Coding 3
Commercial name : Dolby Digital
Codec ID : A_AC3
Duration : 1 h 48 min
Bit rate mode : Constant
Bit rate : 224 kb/s
Channel(s) : 2 channels
Channel layout : L R
Sampling rate : 48.0 kHz
Frame rate : 31.250 FPS (1536 SPF)
Compression mode : Lossy
Stream size : 174 MiB (2%)
Title : Багатоголосий закадровий
Language : Ukrainian
Service kind : Complete Main
Default : Yes
Forced : No

Audio #2
ID : 3
Format : AC-3
Format/Info : Audio Coding 3
Commercial name : Dolby Digital
Codec ID : A_AC3
Duration : 1 h 48 min
Bit rate mode : Constant
Bit rate : 640 kb/s
Channel(s) : 6 channels
Channel layout : L R C LFE Ls Rs
Sampling rate : 48.0 kHz
Frame rate : 31.250 FPS (1536 SPF)
Compression mode : Lossy
Stream size : 496 MiB (5%)
Title : Оригінал
Language : English
Service kind : Complete Main
Default : No
Forced : No

Text #1
ID : 4
Format : UTF-8
Codec ID : S_TEXT/UTF8
Codec ID/Info : UTF-8 Plain Text
Duration : 1 h 41 min
Bit rate : 52 b/s
Count of elements : 685
Stream size : 39.0 KiB (0%)
Language : Russian
Default : No
Forced : No

Text #2
ID : 5
Format : UTF-8
Codec ID : S_TEXT/UTF8
Codec ID/Info : UTF-8 Plain Text
Duration : 1 h 40 min
Bit rate : 66 b/s
Count of elements : 771
Stream size : 49.5 KiB (0%)
Title : Д. Пучков
Language : Russian
Default : No
Forced : No

Text #3
ID : 6
Format : UTF-8
Codec ID : S_TEXT/UTF8
Codec ID/Info : UTF-8 Plain Text
Duration : 1 h 40 min
Bit rate : 43 b/s
Count of elements : 979
Stream size : 32.4 KiB (0%)
Language : English
Default : No
Forced : No
Скріншоти



Особиста оцінка: 10 - без зайвих вагань рекомендую всім!


 Трекер:    Зареєстрований   

Завантажити / скачати фільм українською



відео для новачків



 Зареєстрований:   2019-11-19 19:47
 Розмір:   10.26 GB 
 Оцінка фільму:   9.3/10 (Голосів: 8)
   
Ваш часовий пояс: GMT + 2 Години

Нова тема   Відповісти