Зоряні Війни: Мандалорець (Сезон 1) / Star Wars: The Mandalorian (Season 1) (2019) Ukr/Eng | Sub Ukr

Нові коментарі

Нова тема   Відповісти
Сторінка:  1, 2  наступна
Автор Повідомлення
Anonymous 







2019-11-19 15:01  
Зоряні Війни: Мандалорець (Сезон 1) / Star Wars: The Mandalorian (Season 1) (2019) Ukr/Eng | Sub Ukr


Зоряні Війни: Мандалорець (Сезон 1) / Star Wars: The Mandalorian (Season 1) (2019) Ukr/Eng | Sub Ukr


Жанр: вестерн, пригодницький, фантастика, екшн
Країна: США



Кінокомпанія: Disney
Режисер: Тайка Вайтіті, Дебора Чоу, Рік Фамуїва, Дейв Фіоні, Брайс Говард
Актори: Педро Паскаль, Нік Нолті, Тайка Вайтіті, Карл Везерс та ін.

Сюжет:
Дія серіалу розгортається через кілька років після падіння Імперії, але до приходу до влади Першого Ордена. У центрі сюжету опиниться мисливець за головами, якому доведеться виживати на краю галактики.
Мандалорці - це войовничий народ, який складається з розумних істот різних рас. У центрі їх світогляду - війна, а також слава, яку вона приносить. Мандалорці вважаються найкращими воїнами галактики, тому багато хто з них стають найманцями.


Тривалість: 1 серія: ~30~38:00 (цілком серій: 8)
Перелік серій
Епізод 1, Епізод 2, Епізод 3, Епізод 4, Епізод 5, Епізод 6, Епізод 7, Епізод 8
Якість:
Відео:
кодек:
розмір кадру: 720x304
бітрейт: ~1555-2000 кбіт/сек

Аудіо # 1:
мова: українська
переклад: багатоголосий закадровий
кодек: 5.1
бітрейт: 448 кб/с
Озвучення : Т.С. Cтруґачка

Аудіо # 2:
мова: англійська
переклад: оригінал
кодек: 5.1
бітрейт: 448 кб/с

Субтитри:
мова: українська
тип: програмні (м'які)
формат: srt (1-8)
Info
General
Complete name : The Mandalorian (2019) Season 1 [UKR_ENG] [Hurtom]
Format : AVI
Format/Info : Audio Video Interleave
File size : 685 MiB
Duration : 38 min 46 s
Overall bit rate : 2 469 kb/s
Writing application : Lavf58.20.100

Video
ID : 0
Format : MPEG-4 Visual
Format profile : Advanced [email protected]
Format settings : BVOP1
Format settings, BVOP : 1
Format settings, QPel : No
Format settings, GMC : No warppoints
Format settings, Matrix : Default (H.263)
Codec ID :
Codec ID/Hint :
Duration : 38 min 46 s
Bit rate : 1 557 kb/s
Width : 720 pixels
Height : 304 pixels
Display aspect ratio : 2.40:1
Frame rate : 23.976 (24000/1001) FPS
Color space : YUV
Chroma subsampling : 4:2:0
Bit depth : 8 bits
Scan type : Progressive
Compression mode : Lossy
Bits/(Pixel*Frame) : 0.297
Stream size : 432 MiB (63%)
Writing library : 67

Audio #1
ID : 1
Format : AC-3
Format/Info : Audio Coding 3
Commercial name : Dolby Digital
Codec ID : 2000
Duration : 38 min 46 s
Bit rate mode : Constant
Bit rate : 448 kb/s
Channel(s) : 6 channels
Channel layout : L R C LFE Ls Rs
Sampling rate : 48.0 kHz
Frame rate : 31.250 FPS (1536 SPF)
Bit depth : 16 bits
Compression mode : Lossy
Stream size : 124 MiB (18%)
Alignment : Aligned on interleaves
Interleave, duration : 32 ms (0.77 video frame)
Service kind : Complete Main

Audio #2
ID : 2
Format : AC-3
Format/Info : Audio Coding 3
Commercial name : Dolby Digital
Codec ID : 2000
Duration : 38 min 46 s
Bit rate mode : Constant
Bit rate : 448 kb/s
Channel(s) : 6 channels
Channel layout : L R C LFE Ls Rs
Sampling rate : 48.0 kHz
Frame rate : 31.250 FPS (1536 SPF)
Bit depth : 16 bits
Compression mode : Lossy
Stream size : 124 MiB (18%)
Alignment : Aligned on interleaves
Interleave, duration : 32 ms (0.77 video frame)
Service kind : Complete Main
Скріншоти






Джерело:
Озвучення : Т.С. Cтруґачка
Особиста оцінка: 0 - не дивився


Авторський реліз (завантажувати можна без реєстрації)
 Трекер:    Зареєстрований   

Завантажити / скачати серіал українською



відео для новачків



 Зареєстрований:   2020-01-02 08:41
 Розмір:   4.9 GB 
 Оцінка серіалу:   9.8/10 (Голосів: 236)
   
zoomymba2012 
VIP


З нами з: 08.01.15
Востаннє: 18.09.20
Повідомлень: 686

2019-11-19 16:24  
Anonymous написано:
кодек:

The Mandalorian. S01E01 (2019) [Ukr.Eng] [Hurtom].avi

Дуже дякую за цей формат. Саме те що треба для перегляду на ТВ)

бронн 
Частий відвідувач


З нами з: 21.10.16
Востаннє: 17.09.20
Повідомлень: 46

2019-11-19 19:17  
Дякую. Довгоочікуваний серіал
Anonymous 







2019-11-21 03:18  
+ Серія 2

akella225 
Новенький


З нами з: 25.01.16
Востаннє: 13.09.20
Повідомлень: 11

2019-11-24 21:55  
щиро дякую
omnia88 
Новенький


З нами з: 16.10.16
Востаннє: 15.09.20
Повідомлень: 8

2019-11-25 22:44  
дякую!!!серіал - топ
Theoinside 
Новенький


З нами з: 30.12.14
Востаннє: 17.09.20
Повідомлень: 2

2019-11-26 16:21  
Дякую!
Anonymous 







2019-11-27 16:50  
+ Серія 3

tpolit 
VIP


З нами з: 10.01.15
Востаннє: 17.09.20
Повідомлень: 602

2019-11-27 21:19  
Шкода, що серії такі короткі.
Ozverin 
Відео Гуртом - підтримка та поширення
Відео Гуртом - підтримка та поширення


З нами з: 21.11.08
Востаннє: 14.08.20
Повідомлень: 67

2019-11-28 16:02  
а серіал нічогенький такий. вартий перегляду
Бандерівець_з_криївки 
Новенький


З нами з: 24.08.14
Востаннє: 18.09.20
Повідомлень: 12

2019-11-29 06:21  
норм
Smouk 
Новенький


З нами з: 12.04.12
Востаннє: 17.09.20
Повідомлень: 8

2019-11-29 22:48  
Захоплюючий серіал!!!!!
Oleksa_64 
Свій


З нами з: 25.07.13
Востаннє: 19.09.20
Повідомлень: 65

2019-12-01 17:56  
Після епізода VIII - ковток свіжого повітря!
Ozverin 
Відео Гуртом - підтримка та поширення
Відео Гуртом - підтримка та поширення


З нами з: 21.11.08
Востаннє: 14.08.20
Повідомлень: 67

2019-12-01 18:19  
серіал вийшов кращим, аніж останні повноцінні фільми
DLVillis 
Свій


З нами з: 12.10.10
Востаннє: 18.09.20
Повідомлень: 87

2019-12-01 19:58  
нудно.
бачив куби з гри портал
а все інше - нудно

Anonymous 







2019-12-04 04:18  
+ Серія 4

Alex1993) 
Новенький


З нами з: 10.11.16
Востаннє: 17.09.20
Повідомлень: 7

2019-12-04 20:56  
Я не сильний фанат зоряних війн, однак цей серіал бомбезний. Тут захоплює сюжет і поведінка головного героя та дитини.
21_grams 
Частий відвідувач


З нами з: 16.07.14
Востаннє: 14.06.20
Повідомлень: 25

2019-12-04 21:54  
Ну нарешті 4 серія про пригоди татка Мандо та його малюченя. Величезна дяка.
tpolit 
VIP


З нами з: 10.01.15
Востаннє: 17.09.20
Повідомлень: 602

2019-12-04 22:57  
По четвертій серії добре видно, що вони не знають про що далі знімати цей серіал.
ibsd 
Свій


З нами з: 06.09.10
Востаннє: 18.09.20
Повідомлень: 99

2019-12-05 11:13  
4-та серія дещо слабша, і явно помітно, що щось помінялось (чи режисер, чи сценаріст)... будемо бачити
porfavor 
Частий відвідувач


З нами з: 02.01.13
Востаннє: 18.09.20
Повідомлень: 27

2019-12-08 12:26  
Цитата:
4-та серія дещо слабша

На мою думку, взагалі суцільне "рука-лице", без просвітів (на жаль).

ToxaViking 
Відео Гуртом - субтитрування
Відео Гуртом - субтитрування


З нами з: 01.07.09
Востаннє: 03.09.20
Повідомлень: 286

2019-12-10 12:39  
Цитата:
(чи режисер, чи сценаріст)


Це геніальний задум Джона Фавро=)

Anonymous 







2019-12-12 14:35  
+ Серія 5

don pedro 
Попереджень: 1
Попереджень: 1 


З нами з: 29.06.11
Востаннє: 18.09.20
Повідомлень: 17718

2019-12-14 20:18  
В п'ятій серії сюжет знову тупцює на місці. Звісно, в четвертій-п'ятій серії є приємні речі для фанів, але цього мало.
Done56 
VIP


З нами з: 23.11.15
Востаннє: 19.09.20
Повідомлень: 465

2019-12-15 08:34  
don pedro
Зате дісней непогано заробив на малюкові йода))))

don pedro 
Попереджень: 1
Попереджень: 1 


З нами з: 29.06.11
Востаннє: 18.09.20
Повідомлень: 17718

2019-12-15 09:17  
Done56 написано:
малюкові йода

Так. Чудова вигадка. Disney, як завжди, на висоті. '

Яніс Вермінко 
Попереджень: 1
Попереджень: 1 


З нами з: 07.02.18
Востаннє: 17.09.20
Повідомлень: 132

2019-12-19 19:41  
В чому справа? Чому тут нема 6ї серії, хоча в сусідніх темах є? (уже і сьому релізнути встигли, а тут досі остання 5та)
grafonov 
Новенький


З нами з: 15.04.17
Востаннє: 10.09.20
Повідомлень: 2

2019-12-19 23:30  
Яніс Вермінко
дядю, ти так питаєш начебто задонатіл на весь сезон

Яніс Вермінко 
Попереджень: 1
Попереджень: 1 


З нами з: 07.02.18
Востаннє: 17.09.20
Повідомлень: 132

2019-12-21 17:05  
дядю, питання було не до тебе. Гуляй звідси.
Anonymous 







2019-12-21 23:50  
+ Серія 6 / 7

Ваш часовий пояс: GMT + 2 Години

Нова тема   Відповісти Сторінка:  1, 2  наступна