Жива УПА. Орест (2017) 1080p

Нові коментарі

Нова тема   Відповісти
Автор Повідомлення
ssTAss 
Модератор музики


З нами з: 05.07.08
Востаннє: 24.02.20
Повідомлень: 15892

2019-11-19 01:25  
Жива УПА. Орест (2017) 1080p

Жива УПА. Орест (2017) 1080p


Жанр: біографічний, документальний, історичний
Країна: Україна

Телеканал / кіностудія: Волонтерський проект "Сектор Правди"
Режисер: Алла Мегель
Актори: Дмитро "Дим" Паньшин

Сюжет:
Їх постаті розмиті часом. Їх образи спотворені радянськими міфами.
Їх життя - подвиг, що вартував крові, втрат і забуття дітьми та онуками.
А вони - живі. Документальний цикл про ветеранів УПА. Фільм перший. Орест

Перший фільм циклу - «Жива УПА. Орест». Бій під Бродами. Арешт. Втеча з Сибіру. Підрозділ УПА і знову арешт. Жертв і страждань цієї людини стало би на кілька життів.
Герой фільму - Васкул Орест Петрович - голова Київського крайового братства ОУН—УПА, політв'язень, український політичний, громадський діяч. Учасник національно-визвольного руху.


Тривалість: 00:35:22
Якість: (Запис з телеканалу "Телевсесвіт")
Відео:
кодек:
розмір кадру: 1920 х 1080
бітрейт: 3872 кб/с

Аудіо:
мова: українська (два документи зачитано кацапською без перекладу)
переклад: оригінал
кодек: 2.0
бітрейт: 224 кб/с
MI
Код:
General
Unique ID                                : 265965422083661334653751463156951915270 (0xC81713B9F55F8976EA3535E45FBD9B06)
Complete name                            : Жива УПА. Орест (2017) 1080p [Hurtom].
Format                                   :
Format version                           : Version 4
File size                                : 1.01 GiB
Duration                                 : 35 min 22 s
Overall bit rate mode                    : Variable
Overall bit rate                         : 4 099 kb/s
Movie name                               : Жива УПА. Орест (2017)
Encoded date                             : UTC 2019-11-18 22:57:47
Writing application                      : v37.0.0 ('Leave It') 32-bit
Writing library                          : libebml v1.3.9 + v1.5.2
Cover                                    : Yes
Attachments                              : cover.jpg

Video
ID                                       : 1
Format                                   : AVC
Format/Info                              : Advanced Video Codec
Format profile                           : [email protected]
Format settings                          : CABAC / 3 Ref Frames
Format settings, CABAC                   : Yes
Format settings, ReFrames                : 3 frames
Format settings, GOP                     : M=1, N=50
Codec ID                                 : V_MPEG4/ISO/AVC
Duration                                 : 35 min 22 s
Bit rate mode                            : Variable
Bit rate                                 : 3 872 kb/s
Maximum bit rate                         : 4 799 kb/s
Width                                    : 1 920 pixels
Height                                   : 1 080 pixels
Display aspect ratio                     : 16:9
Frame rate mode                          : Constant
Frame rate                               : 25.000 FPS
Color space                              : YUV
Chroma subsampling                       : 4:2:0
Bit depth                                : 8 bits
Scan type                                : Progressive
Bits/(Pixel*Frame)                       : 0.075
Stream size                              : 979 MiB (94%)
Language                                 : Ukrainian
Default                                  : Yes
Forced                                   : No

Audio
ID                                       : 2
Format                                   : LC
Format/Info                              : Advanced Audio Codec Low Complexity
Codec ID                                 : A_AAC-2
Duration                                 : 35 min 22 s
Bit rate                                 : 224 kb/s
Channel(s)                               : 2 channels
Channel layout                           : L R
Sampling rate                            : 44.1 kHz
Frame rate                               : 43.066 FPS (1024 SPF)
Compression mode                         : Lossy
Stream size                              : 56.7 MiB (5%)
Language                                 : Ukrainian
Default                                  : Yes
Forced                                   : Yes
Скріншоти





Джерело:


Золотий реліз (завантажене не впливає на рейтинг)
 Трекер:    Зареєстрований   

Завантажити / скачати фільм українською



відео для новачків



 Зареєстрований:   2019-11-19 01:25
 Розмір:   1.01 GB 
 Оцінка фільму:   9.8/10 (Голосів: 13)
   
Форкуш 
VIP


З нами з: 03.02.10
Востаннє: 24.02.20
Повідомлень: 2611

2019-11-19 10:09  
Такими фільмами не сильно захопиш молодь. Наголоси в назвах не правильні. Дуже кострубато...
Ваш часовий пояс: GMT + 2 Години

Нова тема   Відповісти