Будинок біля озера / The Lake House (2006) 1080p H.265 Ukr/Eng | Sub Eng

Нові коментарі

Нова тема   Відповісти
Автор Повідомлення
Anonymous 







2019-11-19 02:05  
Будинок біля озера / The Lake House (2006) 1080p H.265 Ukr/Eng | Sub Eng

Будинок біля озера / The Lake House (2006) 1080p H.265 Ukr/Eng | Sub Eng


Жанр: мелодрама, фентезі, романтичний
Країна: США, Австралія
Кінокомпанія: Sound for Film Inc., Vertigo Entertainment, Village Roadshow Pictures, Warner Bros. Pictures
Режисер: Алехандро Агресті / Alejandro Agresti
Актори: Кіану Рівз / Keanu Reeves, Сандра Баллок / Sandra Bullock, Крістофер Пламмер / Christopher Plummer, Ебон Мосс-Бахрах / Ebon Moss-Bachrach, Віллеке ван Аммелруй / Willeke van Ammelrooy, Ділан Уолш / Dylan Walsh, Шоре Агдашлу / Shohreh Aghdashloo, Лінн Коллінз / Lynn Collins, Майк Бацарелла / Mike Bacarella, Кевін Бреннан / Kevin Brennan, Френк Саєті / Frank Caeti, Алія Карр / Aliyah Carr, Дженніфер Кларк / Jennifer Clark, Джейкоб Д. Дюмель / Jacob D. Dumelle, Скотт Еліас / Scott Elias

Сюжет:
Зима 2006 року. Відчувши необхідність змінити своє життя, доктор Кейт Форестер покидає свій незвичайний будинок біля озера в передмісті Ілінойса і влаштовується на роботу в чиказьку лікарню. Єдине, про що шкодує Кейт, так це про свій красивий будинок з величезними вікнами, який дарував їй душевний спокій. По дорозі в місто Кейт залишає в поштовій скриньці лист, який повинен отримати новий мешканець будинку.

Коли ж у нього вселяється талановитий, але розчарований в житті архітектор Алекс Уайлер, він бачить цей будинок зовсім не таким, яким описала його в своєму листі Кейт. Для Алекса це житло має особливе значення, оскільки воно було побудоване його батьком, знаменитим архітектором, який заради кар'єри залишив свою сім'ю. У результаті Алекс вирішує надати будинку його первісний вигляд. Одного разу дивний випадок змушує Алекса написати у відповідь лист Кейт; в процесі їх листування з'ясовується, що він живе в 2004 році, а вона - в 2006-му. І лише загадковий поштовий ящик служить таким собі з'єднуючим їх містком.

У листах вони діляться один з одним найпотаємнішим, і поступово між ними виникає заочний любовний роман. Відчуваючи непереборне бажання зустрітися, Кейт і Алекс йдуть на все, щоб добитися неможливого, ризикуючи при цьому назавжди втратити один одного ...

Тривалість: 01:38:33
Якість:

Відео:
кодек: H.265 (HEVC)
розмір кадру: 1920 x 796
бітрейт: 7 884 кб/с
бітова глибина: 10 біт

Увага! Перед завантаженням переконайтесь, що ваш пристрій відтворення (та/або ПЗ) підтримує H.265 (HEVC)

Аудіо # 1:
мова: українська
переклад: багатоголосий закадровий
кодек: AC-3 2.0
бітрейт: 192 кб/с

Аудіо # 2:
мова: англійська
переклад: оригінал
кодек: AC-3 5.1
бітрейт: 640 кб/с

Субтитри # 1-2: (Full, SDH)
мова: англійська
тип: програмні (м'які)
формат: *.srt


Info
Код:
General
Unique ID                                : 107433949785745363686639597305379180184 (0x50D306AE123C10F6984B529FB6444E98)
Complete name                            : The Lake House (2006) 1080p H.265 [UKR_ENG] [Hurtom].
Format                                   :
Format version                           : Version 4
File size                                : 6.00 GiB
Duration                                 : 1 h 38 min
Overall bit rate                         : 8 718 kb/s
Movie name                               : Будинок біля озера / The Lake House (2006)
Encoded date                             : UTC 2019-11-18 06:19:29
Writing application                      : v20.0.0 ('I Am The Sun') 64-bit
Writing library                          : libebml v1.3.5 + v1.4.8
Cover                                    : Yes
Attachments                              : Cover.jpg

Video
ID                                       : 1
Format                                   : HEVC
Format/Info                              : High Efficiency Video Coding
Format profile                           : Main [email protected]@High
Codec ID                                 : V_MPEGH/ISO/HEVC
Duration                                 : 1 h 38 min
Bit rate                                 : 7 883 kb/s
Width                                    : 1 920 pixels
Height                                   : 796 pixels
Display aspect ratio                     : 2.40:1
Frame rate mode                          : Constant
Frame rate                               : 23.976 (24000/1001) FPS
Color space                              : YUV
Chroma subsampling                       : 4:2:0
Bit depth                                : 10 bits
Bits/(Pixel*Frame)                       : 0.215
Stream size                              : 5.43 GiB (90%)
Title                                    : Будинок біля озера / The Lake House (2006)
Writing library                          : x265 3.2+5-354901970679:[Windows][clang 8.0.1][64 bit] 10bit
Encoding settings                        : cpuid=1111039 / frame-threads=9 / numa-pools=8 / wpp / no-pmode / no-pme / no-psnr / no-ssim / log-level=3 / input-csp=1 / input-res=1920x796 / interlace=0 / total-frames=0 / level-idc=41 / high-tier=1 / uhd-bd=0 / ref=5 / allow-non-conformance / no-repeat-headers / annexb / aud / no-hrd / info / hash=0 / no-temporal-layers / open-gop / min-keyint=23 / keyint=240 / gop-lookahead=0 / bframes=10 / b-adapt=2 / b-pyramid / bframe-bias=0 / rc-lookahead=60 / lookahead-slices=4 / scenecut=40 / radl=0 / no-splice / no-intra-refresh / ctu=32 / min-cu-size=8 / rect / amp / max-tu-size=32 / tu-inter-depth=4 / tu-intra-depth=4 / limit-tu=0 / rdoq-level=2 / dynamic-rd=0.00 / no-ssim-rd / signhide / no-tskip / nr-intra=0 / nr-inter=0 / no-constrained-intra / no-strong-intra-smoothing / max-merge=5 / limit-refs=3 / limit-modes / me=3 / subme=7 / merange=57 / temporal-mvp / no-frame-dup / no-hme / weightp / weightb / no-analyze-src-pics / deblock=-3:-3 / no-sao / no-sao-non-deblock / rd=6 / selective-sao=0 / no-early-skip / no-rskip / no-fast-intra / no-tskip-fast / no-cu-lossless / no-b-intra / no-splitrd-skip / rdpenalty=0 / psy-rd=2.00 / psy-rdoq=1.00 / no-rd-refine / no-lossless / cbqpoffs=0 / crqpoffs=0 / rc=abr / bitrate=7884 / qcomp=0.65 / qpstep=4 / stats-write=0 / stats-read=1 / cplxblur=20.0 / qblur=0.5 / vbv-maxrate=50000 / vbv-bufsize=50000 / vbv-init=0.9 / ipratio=1.40 / pbratio=1.30 / aq-mode=3 / aq-strength=1.00 / no-cutree / zone-count=0 / no-strict-cbr / qg-size=32 / no-rc-grain / qpmax=69 / qpmin=0 / no-const-vbv / sar=1 / overscan=0 / videoformat=5 / range=0 / colorprim=1 / transfer=1 / colormatrix=1 / chromaloc=0 / display-window=0 / cll=0,0 / min-luma=0 / max-luma=1023 / log2-max-poc-lsb=8 / vui-timing-info / vui-hrd-info / slices=1 / no-opt-qp-pps / no-opt-ref-list-length-pps / no-multi-pass-opt-rps / scenecut-bias=0.05 / no-opt-cu-delta-qp / aq-motion / no-hdr / no-hdr-opt / no-dhdr10-opt / no-idr-recovery-sei / analysis-reuse-level=5 / scale-factor=0 / refine-intra=0 / refine-inter=0 / refine-mv=1 / refine-ctu-distortion=0 / no-limit-sao / ctu-info=0 / no-lowpass-dct / refine-analysis-type=0 / copy-pic=1 / max-ausize-factor=1.0 / no-dynamic-refine / no-single-sei / no-hevc-aq / no-svt / no-field / qp-adaptation-range=1.00
Language                                 : English
Default                                  : Yes
Forced                                   : No
Color range                              : Limited
Color primaries                          : BT.709
Transfer characteristics                 : BT.709
Matrix coefficients                      : BT.709

Audio #1
ID                                       : 2
Format                                   : AC-3
Format/Info                              : Audio Coding 3
Commercial name                          : Dolby Digital
Codec ID                                 : A_AC3
Duration                                 : 1 h 38 min
Bit rate mode                            : Constant
Bit rate                                 : 192 kb/s
Channel(s)                               : 2 channels
Channel layout                           : L R
Sampling rate                            : 48.0 kHz
Frame rate                               : 31.250 FPS (1536 SPF)
Bit depth                                : 16 bits
Compression mode                         : Lossy
Delay relative to video                  : 3 ms
Stream size                              : 135 MiB (2%)
Title                                    : / 2.0 Ch / 192 kbps / БЗ / Novy Kanal
Language                                 : Ukrainian
Service kind                             : Complete Main
Default                                  : Yes
Forced                                   : Yes

Audio #2
ID                                       : 3
Format                                   : AC-3
Format/Info                              : Audio Coding 3
Commercial name                          : Dolby Digital
Codec ID                                 : A_AC3
Duration                                 : 1 h 38 min
Bit rate mode                            : Constant
Bit rate                                 : 640 kb/s
Channel(s)                               : 6 channels
Channel layout                           : L R C LFE Ls Rs
Sampling rate                            : 48.0 kHz
Frame rate                               : 31.250 FPS (1536 SPF)
Bit depth                                : 16 bits
Compression mode                         : Lossy
Stream size                              : 451 MiB (7%)
Title                                    : / 5.1 Ch / 640 kbps / Original
Language                                 : English
Service kind                             : Complete Main
Default                                  : No
Forced                                   : No

Text #1
ID                                       : 4
Format                                   : UTF-8
Codec ID                                 : S_TEXT/UTF8
Codec ID/Info                            : UTF-8 Plain Text
Duration                                 : 1 h 36 min
Bit rate                                 : 53 b/s
Count of elements                        : 1075
Stream size                              : 37.9 KiB (0%)
Title                                    : Full
Language                                 : English
Default                                  : No
Forced                                   : No

Text #2
ID                                       : 5
Format                                   : UTF-8
Codec ID                                 : S_TEXT/UTF8
Codec ID/Info                            : UTF-8 Plain Text
Duration                                 : 1 h 36 min
Bit rate                                 : 56 b/s
Count of elements                        : 1112
Stream size                              : 40.2 KiB (0%)
Title                                    : SDH
Language                                 : English
Default                                  : No
Forced                                   : No

Menu
00:00:00.000                             : en:00:00:00.000
00:03:35.382                             : en:00:03:35.382
00:07:38.291                             : en:00:07:38.291
00:13:18.131                             : en:00:13:18.131
00:17:17.203                             : en:00:17:17.203
00:23:39.418                             : en:00:23:39.418
00:26:58.450                             : en:00:26:58.450
00:32:44.629                             : en:00:32:44.629
00:36:40.365                             : en:00:36:40.365
00:40:25.423                             : en:00:40:25.423
00:45:45.743                             : en:00:45:45.743
00:50:27.858                             : en:00:50:27.858
00:59:24.728                             : en:00:59:24.728
01:03:21.297                             : en:01:03:21.297
01:09:23.993                             : en:01:09:23.993
01:13:14.890                             : en:01:13:14.890
01:15:48.544                             : en:01:15:48.544
01:20:21.483                             : en:01:20:21.483
01:24:50.752                             : en:01:24:50.752
01:28:11.119                             : en:01:28:11.119
01:35:03.531                             : en:01:35:03.531
Світлини




Джерело: &
Особиста оцінка: 0 - не дивився


 Трекер:    Зареєстрований   

Завантажити / скачати фільм українською



відео для новачків



 Зареєстрований:   2019-11-19 02:05
 Розмір:   6 GB 
 Оцінка фільму:   9.7/10 (Голосів: 7)
   
Інші релізи
Ваш часовий пояс: GMT + 2 Години

Нова тема   Відповісти