Двійник / Gemini Man (2019) 1080p Ukr/Eng | Sub Ukr/Eng

Нові коментарі

Нова тема   Відповісти
Сторінка:  1, 2  наступна
Автор Повідомлення
Anonymous 







2019-11-18 19:09  
Двійник / Gemini Man (2019) 1080p Ukr/Eng | Sub Ukr/Eng


«Хто врятує тебе від самого себе?»



Жанр: бойовик, драма, трилер, фантастика
Країна: Китай, США



Кінокомпанія: Skydance Media, Jerry Bruckheimer Films, Fosun Group Forever
Режисер: Енг Лі
Актори: Вілл Сміт, Мері Елізабет Вінстед, Клайв Овен, Бенедикт Вонг, Дуглас Ходж, Ральф Браун, Лінда Емонд, Теодора Вуллі

Сюжет:
Кілер Генрі Броген вирішує поставити крапку у професійній кар’єрі. Та несподівано, на його шляху з’являється таємничий двійник, який знає про кожен наступний крок.


Тривалість: 01:57:00
Якість: 1080p
Відео:
кодек:
розмір кадру: 1920 x 1040
бітрейт: 14200 кб/с

Аудіо # 1:
мова: українська
переклад: професійний дубльований
кодек: 5.1
бітрейт: 384 кб/с

Аудіо # 2:
мова: англійська
переклад: оригінал
кодек: E- 7.1
бітрейт: 1536 кб/с

Субтитри # 1-2 (Forced, Full):
мова: українська
тип: пререндерні
формат: *.pgs

Субтитри #3-4 (Ful, SDHl):
мова: англійська
тип: пререндерні
формат: *.pgs
Info
Код:
General
Complete name                            : Gemini Man (2019) 1080p [Ukr_Eng] [Video_Hurtom].
Format                                   :
Format version                           : Version 4
File size                                : 13.2 GiB
Duration                                 : 1 h 57 min
Overall bit rate                         : 16.2 Mb/s
Encoded date                             : UTC 2020-01-23 08:39:06
Writing application                      : v30.1.0 ('Forever And More') 64-bit
Writing library                          : libebml v1.3.6 + v1.4.9
Cover                                    : Yes
Attachments                              : cover.jpg

Video
ID                                       : 1
Format                                   : AVC
Format/Info                              : Advanced Video Codec
Format profile                           : [email protected]
Format settings                          : CABAC / 4 Ref Frames
Format settings, CABAC                   : Yes
Format settings, RefFrames               : 4 frames
Codec ID                                 : V_MPEG4/ISO/AVC
Duration                                 : 1 h 57 min
Bit rate                                 : 14.2 Mb/s
Width                                    : 1 920 pixels
Height                                   : 1 040 pixels
Display aspect ratio                     : 1.85:1
Frame rate mode                          : Constant
Frame rate                               : 23.976 (24000/1001) FPS
Color space                              : YUV
Chroma subsampling                       : 4:2:0
Bit depth                                : 8 bits
Scan type                                : Progressive
Bits/(Pixel*Frame)                       : 0.297
Stream size                              : 11.6 GiB (88%)
Writing library                          : core 159 r2991+49 524a90c t_mod_New [[email protected] X86_64]
Encoding settings                        : cabac=1 / ref=4 / deblock=1:-3:-3 / analyse=0x3:0x133 / me=umh / subme=10 / psy=1 / fade_compensate=0.00 / psy_rd=1.03:0.00 / mixed_ref=1 / me_range=32 / chroma_me=1 / trellis=2 / 8x8dct=1 / cqm=0 / deadzone=21,11 / fast_pskip=0 / chroma_qp_offset=-2 / threads=12 / lookahead_threads=2 / sliced_threads=0 / nr=0 / decimate=1 / interlaced=0 / bluray_compat=0 / constrained_intra=0 / fgo=0 / bframes=8 / b_pyramid=2 / b_adapt=2 / b_bias=0 / direct=3 / weightb=1 / open_gop=0 / weightp=2 / keyint=250 / keyint_min=23 / scenecut=40 / intra_refresh=0 / rc=2pass / mbtree=0 / bitrate=14200 / ratetol=1.0 / qcomp=0.63 / qpmin=0:0:0 / qpmax=69:69:69 / qpstep=4 / cplxblur=20.0 / qblur=0.5 / ip_ratio=1.30 / pb_ratio=1.20 / aq=3:0.75 / aq-sensitivity=10.00 / aq-factor=1.00:1.00:1.00 / aq2=0 / aq3=0
Language                                 : English
Default                                  : Yes
Forced                                   : No
Color range                              : Limited
Matrix coefficients                      : BT.709

Audio #1
ID                                       : 2
Format                                   : AC-3
Format/Info                              : Audio Coding 3
Commercial name                          : Dolby Digital
Codec ID                                 : A_AC3
Duration                                 : 1 h 57 min
Bit rate mode                            : Constant
Bit rate                                 : 384 kb/s
Channel(s)                               : 6 channels
Channel layout                           : L R C LFE Ls Rs
Sampling rate                            : 48.0 kHz
Frame rate                               : 31.250 FPS (1536 SPF)
Bit depth                                : 16 bits
Compression mode                         : Lossy
Stream size                              : 321 MiB (2%)
Title                                    : , 5.1 | 384
Language                                 : Ukrainian
Service kind                             : Complete Main
Default                                  : Yes
Forced                                   : No

Audio #2
ID                                       : 3
Format                                   : E-AC-3
Format/Info                              : Enhanced AC-3
Commercial name                          : Dolby Digital Plus
Format profile                           : Blu-ray Disc
Codec ID                                 : A_EAC3
Duration                                 : 1 h 57 min
Bit rate mode                            : Constant
Bit rate                                 : 1 536 kb/s
Channel(s)                               : 8 channels
Channel layout                           : L R C LFE Ls Rs Lb Rb
Sampling rate                            : 48.0 kHz
Frame rate                               : 31.250 FPS (1536 SPF)
Compression mode                         : Lossy
Stream size                              : 1.26 GiB (10%)
Title                                    : E-AC-3, 7.1 | 1536
Language                                 : English
Service kind                             : Complete Main
Default                                  : No
Forced                                   : No

Text #1
ID                                       : 4
Format                                   : PGS
Muxing mode                              : zlib
Codec ID                                 : S_HDMV/PGS
Codec ID/Info                            : Picture based subtitle format used on BDs/HD-DVDs
Duration                                 : 1 h 55 min
Bit rate                                 : 373 b/s
Count of elements                        : 32
Stream size                              : 316 KiB (0%)
Title                                    : Forced
Language                                 : Ukrainian
Default                                  : Yes
Forced                                   : No

Text #2
ID                                       : 5
Format                                   : PGS
Muxing mode                              : zlib
Codec ID                                 : S_HDMV/PGS
Codec ID/Info                            : Picture based subtitle format used on BDs/HD-DVDs
Duration                                 : 1 h 55 min
Bit rate                                 : 30.2 kb/s
Count of elements                        : 2674
Stream size                              : 25.0 MiB (0%)
Title                                    : Full
Language                                 : Ukrainian
Default                                  : No
Forced                                   : No

Text #3
ID                                       : 6
Format                                   : PGS
Muxing mode                              : zlib
Codec ID                                 : S_HDMV/PGS
Codec ID/Info                            : Picture based subtitle format used on BDs/HD-DVDs
Duration                                 : 1 h 45 min
Bit rate                                 : 34.6 kb/s
Count of elements                        : 2642
Stream size                              : 26.1 MiB (0%)
Title                                    : Full
Language                                 : English
Default                                  : No
Forced                                   : No

Text #4
ID                                       : 7
Format                                   : PGS
Muxing mode                              : zlib
Codec ID                                 : S_HDMV/PGS
Codec ID/Info                            : Picture based subtitle format used on BDs/HD-DVDs
Duration                                 : 1 h 45 min
Bit rate                                 : 39.9 kb/s
Count of elements                        : 3080
Stream size                              : 30.2 MiB (0%)
Title                                    : SDH
Language                                 : English
Default                                  : No
Forced                                   : No

Menu
00:00:00.000                             : :Chapter 01
00:07:21.648                             : :Chapter 02
00:15:31.680                             : :Chapter 03
00:18:13.133                             : :Chapter 04
00:24:39.518                             : :Chapter 05
00:30:59.440                             : :Chapter 06
00:34:09.464                             : :Chapter 07
00:42:40.306                             : :Chapter 08
00:50:24.896                             : :Chapter 09
00:56:45.819                             : :Chapter 10
01:03:30.305                             : :Chapter 11
01:08:13.171                             : :Chapter 12
01:16:45.934                             : :Chapter 13
01:24:43.995                             : :Chapter 14
01:30:04.732                             : :Chapter 15
01:34:00.926                             : :Chapter 16
01:42:14.461                             : :Chapter 17
01:47:07.587                             : :Chapter 18
Скріншоти


Джерело:
Особиста оцінка: 8 - мені сподобалося


 Трекер:    Зареєстрований   

Завантажити / скачати фільм українською



відео для новачків



 Зареєстрований:   2020-01-23 11:09
 Розмір:   13.21 GB 
 Оцінка фільму:   8.6/10 (Голосів: 137)
   
Інші релізи
   Двійник / Gemini Man (2019) UHD Remux 2160p 4K HDR, HFR (60FPS) H.265 Ukr/Eng | Sub Ukr/Eng Documentalist  5 / 0   73.8 GB   2020-02-03 19:07 
   Двійник / Gemini Man (2019) antik_2008  42 / 0   1.85 GB   2020-01-22 18:47 
   Двійник / Gemini Man (2019) Remux 1080p Ukr/Eng | Sub Ukr/Eng antik_2008  7 / 0   26.7 GB   2020-01-22 18:20 
   Двійник / Gemini Man (2019) 1080p H.265 Ukr/Eng | Sub Ukr/Eng -Star-Lord-  20 / 2   7.56 GB   2020-01-22 00:00 
   Двійник / Gemini Man (2019) 720p Ukr/Eng | Sub Ukr/Eng 11FrYkT  20 / 1   5.74 GB   2020-01-21 19:29 
   Двійник / Gemini Man (2019) AVC Ukr/Eng | Sub Ukr/Eng 11FrYkT  57 / 0   2.38 GB   2020-01-21 11:22 
ImfromUkraine 
VIP


З нами з: 18.02.12
Востаннє: 27.02.20
Повідомлень: 345

2019-11-18 20:00  
звук як завжди Cry (2) буду чекати нормального
Anonymous 







2019-11-18 21:14  
ImfromUkraine написано:
звук як завжди буду чекати нормального

А ви сподівались , що через три тижні після прем'єри вже ліцензія буде . А взагалі і так добре , що взагалі хоч якій звук є.

libracinema 
Частий відвідувач


З нами з: 27.10.17
Востаннє: 29.02.20
Повідомлень: 25

2019-11-18 21:28  
Anonymous
Які три тижні, прем'єра була 10 жовтня.

ImfromUkraine 
VIP


З нами з: 18.02.12
Востаннє: 27.02.20
Повідомлень: 345

2019-11-18 21:34  
Anonymous написано:
А ви сподівались , що через три тижні після прем'єри вже ліцензія буде . А взагалі і так добре , що взагалі хоч якій звук є.

просто дивуюся, що
Цитата:
переклад: професійний дубльований

з такою якiстю. хоч би приписали що-небудь)

Anonymous 







2019-11-18 22:19  
libracinema
5 тижнів! І так дуже швидко є можливість переглянути кіно

ImfromUkraine
в медіа інфо написано про аудіо
і з таким відео і так повинно бути це зрозуміло

redcit 
VIP


З нами з: 21.12.10
Востаннє: 29.02.20
Повідомлень: 820

2019-11-18 22:20  
Сподіваюся, що фільммейкери нарешті покинуть намагання знімати фільмі із частотою кадрів 120.
leicheman 
Відео Гуртом - фільмокрай
Відео Гуртом - фільмокрай


З нами з: 03.07.14
Востаннє: 29.02.20
Повідомлень: 4478

2019-11-18 22:57  
6/10
на вечір фільм досить нормальний, але можна було б 15хв хронометражу вирізати. це прикольно, що вони узяли обличчя зі старих фільмів і серіалі і зкліпали молодо Смітта, але під час драк і в кінці було тяжко без сміху на те дивитися.

neex 
Новенький


З нами з: 06.09.10
Востаннє: 26.02.20
Повідомлень: 1

2019-11-19 21:44  
Цитата:
Frame rate : 30.000 FPS

Скачав щоб перевірити, і таки ефект зовсім не як в кінотеатрі з 60 fps s 4K

KeryaS 
VIP


З нами з: 01.09.14
Востаннє: 29.02.20
Повідомлень: 255

2019-11-19 23:05  
redcit написано:
фільммейкери нарешті покинуть намагання знімати фільмі із частотою кадрів 120

Сподіваюсь, що ні. На пристойному телевізорі високий фреймрейт дає гарний ефект.
Сам фільм досить пристойний, але в такій якості більшість бойових сцен ріжуть око, сюжет трохи банальний, але дивитися не нудно. Варто переглянути у нормальній якості.

betame 
Частий відвідувач


З нами з: 05.12.11
Востаннє: 29.02.20
Повідомлень: 38

2019-11-19 23:05  
Нормас кіно
Kamper 
Свій


З нами з: 21.01.13
Востаннє: 27.02.20
Повідомлень: 79

2019-11-20 12:10  
Рейтинг занижений, дивився в 3Д - досить пристойний фільм, я б ближче до 6.5 а то і трохи більше поставив би.
Anonymous 







2019-11-20 13:27  
Торент файл оновлено. Замінив на відео без корейских субтитрів.
+380954897458 
VIP


З нами з: 02.06.17
Востаннє: 29.02.20
Повідомлень: 639

2019-11-20 18:47  
Anonymous
Дякую за це!

Wensun 
Поважний учасник


З нами з: 20.01.09
Востаннє: 28.02.20
Повідомлень: 155

2019-11-21 13:00  
сюжет добрий. але "молодий" сміт, це просто жахітя, міміка жахлива, 2 сортна CGI. майже як в комп іграх
Trololo2017 
Новенький


З нами з: 16.12.17
Востаннє: 29.02.20
Повідомлень: 9

2019-11-21 16:13  
KeryaS написано:
Скачав щоб перевірити, і таки ефект зовсім не як в кінотеатрі з 60 fps s 4K

А де було 4к? 2К було, а чотири де ?

waldi-hurtom 
VIP


З нами з: 07.10.12
Востаннє: 28.02.20
Повідомлень: 1097

2019-11-21 17:17  
Непоганий бойовичок, 7 з 10. Дякую за реліз.
MakRA 
VIP


З нами з: 10.11.18
Востаннє: 29.02.20
Повідомлень: 828

2019-11-23 22:21  
Подивилися. Фільм пристойний, сюжет хоч і не зовсім оригінальний, але було цікаво (та й Вілла Сміта давненько вже бачив у нових фільмах). Десь на 8 з 10, буде в якості, можливо навіть виникне бажання передивитися.
Garikafterwork 
Новенький


З нами з: 02.10.12
Востаннє: 28.02.20
Повідомлень: 22

2019-11-24 18:56  
Фільм на один раз. Банально фантастично. Аладін зі Смітом був кращим )
+380954897458 
VIP


З нами з: 02.06.17
Востаннє: 29.02.20
Повідомлень: 639

2019-11-24 19:24  
Так, хороший бойовик, рейтингу не відповідає зовсім. Енг Лі талановитий постановник, не зловживає надто різким монтажем, полюбляє довгі плани і цим дає нам можливість насолодитися гарним екшеном. Навіть дитячий прокатний рейтинг зробив якомога ближчим до дорослого. :-))
zdlr 
Свій


З нами з: 07.12.12
Востаннє: 29.02.20
Повідомлень: 64

2019-11-24 21:21  
Особисто я втомився від супер-героїв. Ну настільки всі круті що страшно жити.

Трошки в кіно постійно відволікаєшся на цих комп'ютеризованих Вілл Смітов :-)

shtuzer 
Новенький


З нами з: 09.03.11
Востаннє: 26.02.20
Повідомлень: 6

2019-11-27 09:50  
Ідея фільму непогана, Сміт не підвів. Графіка - ну як графіка, краще чим в фільмах Assylum. Але де ви ще побачите Смітів різного віку одночасно? А от сюжетна лінія наче як на перемотці. Мабуть, в бюджет не вкладалися, спішили.
0mage0 
VIP


З нами з: 06.10.15
Востаннє: 29.02.20
Повідомлень: 639

2019-11-27 22:03  
Дивитися можна, хоча як на мене, трошки забагато драми "старший" Сміт створює.
Гадаю, більшість з перелічених старшим Смітом деталей, які є спільними для нього та молодшого Сміта, не обумовлені або лише частково обумовлені ДНК, а наприклад, його психологічні заскоки — так точно не пов'язані з ДНК. В кінці нам демонструють якогось невмирущого клона-стрибуна у якомусь суперкостюмі, який витримує десятки куль і вогонь і жодним чином це не коментують, що це за убивця, який набагато потужніший за них обох. Тобто, зрозуміло, що це ще один клон, але він набагато крутіший за них. І що в кінці, проєкт прикрили тому, що вони вбили голову проєкту чи тому, що визнали проєкт поганим? Якщо друге, то чому раніше про нього не знали? Це ж на урядові кошти, я так розумію?
Wensun написано:
сюжет добрий. але "молодий" сміт, це просто жахітя, міміка жахлива, 2 сортна CGI. майже як в комп іграх

Як на мене, норм графіка. Я взагалі гадав, що це вони знайшли схожого молодого актора.

redcit написано:
Сподіваюся, що фільммейкери нарешті покинуть намагання знімати фільмі із частотою кадрів 120.

А що не так зі зніманням з частотою кадрів 120 Гц?

Trololo2017 
Новенький


З нами з: 16.12.17
Востаннє: 29.02.20
Повідомлень: 9

2019-11-28 00:34  
Цитата:
Як на мене, норм графіка. Я взагалі гадав, що це вони знайшли схожого молодого актора

Молодого зіграв сам Сміт, просто потім його омолодшили(через цифру) і ще для цього винайшли якись прозорий грім.

ktw14 
Свій


З нами з: 24.03.11
Востаннє: 26.02.20
Повідомлень: 146

2019-12-01 17:07  
Фільм крутий, гра Віла Сміта на висоті.
redcit 
VIP


З нами з: 21.12.10
Востаннє: 29.02.20
Повідомлень: 820

2019-12-09 11:34  
Стільки хороших відгуків про фільм, що складається враження неначе я не той фільм дивився. Wide grin
igor911 
Модератор відео


З нами з: 18.01.08
Востаннє: 29.02.20
Повідомлень: 14131

2019-12-25 21:20  
Повні офіційні українські субтитри з тюнса (перекладач Олена Цехмейструк):

Jack Smiles 
Попереджень: 1
Попереджень: 1 


З нами з: 24.06.16
Востаннє: 28.02.20
Повідомлень: 107

2020-01-02 16:09  
igor911
А audio доріжка?

igor911 
Модератор відео


З нами з: 18.01.08
Востаннє: 29.02.20
Повідомлень: 14131

2020-01-02 16:20  
Jack Smiles написано:
А audio доріжка?

Від учора є на блубірді в вебці, а від сьогодні і в блуреї.

Додано через 28 секунд:

*укр.доріжка стерео з тюнса

+380954897458 
VIP


З нами з: 02.06.17
Востаннє: 29.02.20
Повідомлень: 639

2020-01-02 16:47  
redcit
Просто Ви не той, кому треба такі фільм дивитися. Vampire-like teeth

Ваш часовий пояс: GMT + 2 Години

Нова тема   Відповісти Сторінка:  1, 2  наступна