Офелія / Ophelia (2018) 1080p H.265 Ukr/Eng | Sub Eng

Нові коментарі

Нова тема   Відповісти
Автор Повідомлення
Anonymous 







2019-11-18 17:07  


Офелія / Ophelia (2018) 1080p H.265 Ukr/Eng | Sub Eng



«Помста знищує любов»





Жанр: історичний, мелодрама
Країна: Велика Британія, США



Кінокомпанія:Covert Media, Bert Marcus Productions, Bobker / Kruger Films
Режисер:Клер МакКарті
Актори: Дейзі Рідлі, Наомі Воттс, Клайв Овен, Том Фелтон, Джордж МакКей, Домінік Мефхам

Сюжет:
Адаптація відомої історії Вільяма Шекспіра про Гамлета, принца Датського, з точки зору його коханої Офелії. Вона є фрейліною при дворі королеви Гертруди, матері Гамлета. Раптом король помирає, і до влади приходить його брат Клавдій. Офелія випадково дізнається про його змову з Гертрудою, і цей секрет зводить дівчину з розуму. Вона намагається врятувати їх з Гамлетом, але принц залишається непохитним у своєму бажанні помститися дядькові за вбивство свого батька.


Тривалість: 01:46:22
Якість: 1080p

Відео:
кодек: H.265 (HEVC)
розмір кадру: 1920x804
бітрейт: ~4557 кб/с
бітова глибина: 10 біт

Аудіо # 1:
мова: українська
переклад: професійний дубльований
кодек: 2.0 (стерео)
бітрейт: 192 кб/с

Аудіо # 2:
мова: англійська
переклад: оригінал
кодек: 5.1
бітрейт: 640 кб/с

Субтитри: (Full, SDH)
мова: англійська
тип: програмні (м'які)
формат: *.srt
Info
Код:

General
Complete name                            : Ophelia (2018) 1080p H.265 [ukr, eng] [ViDeO_Hurtom].
Format                                   :
Format version                           : Version 4
File size                                : 4.01 GiB
Duration                                 : 1 h 46 min
Overall bit rate                         : 5 391 kb/s
Encoded date                             : UTC 2019-11-18 13:57:20
Writing application                      : v30.1.0 ('Forever And More') 64-bit
Writing library                          : libebml v1.3.6 + v1.4.9
Cover                                    : Yes
Attachments                              : cover.jpg

Video
ID                                       : 1
Format                                   : HEVC
Format/Info                              : High Efficiency Video Coding
Format profile                           : Main [email protected]@Main
Codec ID                                 : V_MPEGH/ISO/HEVC
Duration                                 : 1 h 46 min
Bit rate                                 : 4 557 kb/s
Width                                    : 1 920 pixels
Height                                   : 804 pixels
Display aspect ratio                     : 2.40:1
Frame rate mode                          : Constant
Frame rate                               : 23.976 (24000/1001) FPS
Color space                              : YUV
Chroma subsampling                       : 4:2:0
Bit depth                                : 10 bits
Bits/(Pixel*Frame)                       : 0.123
Stream size                              : 3.39 GiB (85%)
Writing library                          : x265 3.2+5-354901970679:[Windows][GCC 9.2.0][64 bit] 10bit
Encoding settings                        : cpuid=1111039 / frame-threads=3 / numa-pools=8 / wpp / no-pmode / no-pme / no-psnr / no-ssim / log-level=2 / input-csp=1 / input-res=1920x804 / interlace=0 / total-frames=153026 / level-idc=0 / high-tier=1 / uhd-bd=0 / ref=4 / no-allow-non-conformance / no-repeat-headers / annexb / no-aud / no-hrd / info / hash=0 / no-temporal-layers / open-gop / min-keyint=23 / keyint=250 / gop-lookahead=0 / bframes=8 / b-adapt=2 / b-pyramid / bframe-bias=0 / rc-lookahead=25 / lookahead-slices=4 / scenecut=40 / radl=0 / no-splice / no-intra-refresh / ctu=64 / min-cu-size=8 / rect / no-amp / max-tu-size=32 / tu-inter-depth=1 / tu-intra-depth=1 / limit-tu=0 / rdoq-level=2 / dynamic-rd=0.00 / no-ssim-rd / signhide / no-tskip / nr-intra=0 / nr-inter=0 / no-constrained-intra / strong-intra-smoothing / max-merge=3 / limit-refs=3 / limit-modes / me=3 / subme=3 / merange=57 / temporal-mvp / no-frame-dup / no-hme / weightp / no-weightb / no-analyze-src-pics / deblock=0:0 / no-sao / no-sao-non-deblock / rd=4 / selective-sao=0 / no-early-skip / rskip / no-fast-intra / no-tskip-fast / no-cu-lossless / no-b-intra / no-splitrd-skip / rdpenalty=0 / psy-rd=2.00 / psy-rdoq=1.00 / no-rd-refine / no-lossless / cbqpoffs=0 / crqpoffs=0 / rc=crf / crf=18.0 / qcomp=0.60 / qpstep=4 / stats-write=0 / stats-read=0 / ipratio=1.40 / pbratio=1.30 / aq-mode=3 / aq-strength=1.00 / cutree / zone-count=0 / no-strict-cbr / qg-size=32 / no-rc-grain / qpmax=69 / qpmin=0 / no-const-vbv / sar=0 / overscan=0 / videoformat=5 / range=0 / colorprim=2 / transfer=2 / colormatrix=2 / chromaloc=0 / display-window=0 / cll=0,0 / min-luma=0 / max-luma=1023 / log2-max-poc-lsb=8 / vui-timing-info / vui-hrd-info / slices=1 / no-opt-qp-pps / no-opt-ref-list-length-pps / no-multi-pass-opt-rps / scenecut-bias=0.05 / no-opt-cu-delta-qp / aq-motion / no-hdr / no-hdr-opt / no-dhdr10-opt / no-idr-recovery-sei / analysis-reuse-level=5 / scale-factor=0 / refine-intra=0 / refine-inter=0 / refine-mv=1 / refine-ctu-distortion=0 / no-limit-sao / ctu-info=0 / no-lowpass-dct / refine-analysis-type=0 / copy-pic=1 / max-ausize-factor=1.0 / no-dynamic-refine / no-single-sei / no-hevc-aq / no-svt / no-field / qp-adaptation-range=1.00
Default                                  : Yes
Forced                                   : No

Audio #1
ID                                       : 2
Format                                   : AC-3
Format/Info                              : Audio Coding 3
Commercial name                          : Dolby Digital
Codec ID                                 : A_AC3
Duration                                 : 1 h 46 min
Bit rate mode                            : Constant
Bit rate                                 : 192 kb/s
Channel(s)                               : 2 channels
Channel layout                           : L R
Sampling rate                            : 48.0 kHz
Frame rate                               : 31.250 FPS (1536 SPF)
Bit depth                                : 16 bits
Compression mode                         : Lossy
Stream size                              : 146 MiB (4%)
Title                                    : 2.0 | 192
Language                                 : Ukrainian
Service kind                             : Complete Main
Default                                  : Yes
Forced                                   : No

Audio #2
ID                                       : 3
Format                                   : AC-3
Format/Info                              : Audio Coding 3
Commercial name                          : Dolby Digital
Codec ID                                 : A_AC3
Duration                                 : 1 h 46 min
Bit rate mode                            : Constant
Bit rate                                 : 640 kb/s
Channel(s)                               : 6 channels
Channel layout                           : L R C LFE Ls Rs
Sampling rate                            : 48.0 kHz
Frame rate                               : 31.250 FPS (1536 SPF)
Bit depth                                : 16 bits
Compression mode                         : Lossy
Stream size                              : 487 MiB (12%)
Title                                    : 5.1 | 640
Language                                 : English
Service kind                             : Complete Main
Default                                  : No
Forced                                   : No

Text #1
ID                                       : 4
Format                                   : UTF-8
Codec ID                                 : S_TEXT/UTF8
Codec ID/Info                            : UTF-8 Plain Text
Duration                                 : 1 h 43 min
Bit rate                                 : 43 b/s
Count of elements                        : 1231
Stream size                              : 32.7 KiB (0%)
Title                                    : Full
Language                                 : English
Default                                  : No
Forced                                   : No

Text #2
ID                                       : 5
Format                                   : UTF-8
Codec ID                                 : S_TEXT/UTF8
Codec ID/Info                            : UTF-8 Plain Text
Duration                                 : 1 h 45 min
Bit rate                                 : 51 b/s
Count of elements                        : 1434
Stream size                              : 39.5 KiB (0%)
Title                                    : SDH
Language                                 : English
Default                                  : Yes
Forced                                   : No

Menu
00:00:00.000                             : en:Chapter 01
00:08:51.614                             : en:Chapter 02
00:20:56.171                             : en:Chapter 03
00:29:32.687                             : en:Chapter 04
00:37:39.215                             : en:Chapter 05
00:47:27.928                             : en:Chapter 06
00:56:32.389                             : en:Chapter 07
01:08:10.002                             : en:Chapter 08
01:18:16.566                             : en:Chapter 09
01:26:01.239                             : en:Chapter 10
01:34:09.894                             : en:Chapter 11
01:39:58.158                             : en:Chapter 12
01:46:20.540                             : en:Chapter 13
Скріншоти




Джерело: &
Особиста оцінка: 0 - не дивився
Увага! Перед завантаженням переконайтесь, що ваш пристрій відтворення (та/або ПЗ) підтримує H.265 (HEVC)


 Трекер:    Зареєстрований   

Завантажити / скачати фільм українською



відео для новачків



 Зареєстрований:   2019-11-18 17:07
 Розмір:   4.01 GB 
 Оцінка фільму:   9/10 (Голосів: 3)
   
Інші релізи
   Офелія / Ophelia (2018) 1080p Ukr/Eng | Sub Eng antik_2008  1 / 0   6.19 GB   2019-11-18 18:54 
   Офелія / Ophelia (2018) Remux 1080p Ukr/Eng | Sub Eng antik_2008  2 / 0   23.86 GB   2019-11-18 17:59 
   Офелія / Ophelia (2018) Ukr/Eng antik_2008  5 / 0   1.91 GB   2019-11-18 16:54 
   Офелія / Ophelia (2018) 720p Ukr/Eng | Sub Eng 11FrYkT  0 / 0   5.45 GB   2019-11-17 10:42 
   Офелія / Ophelia (2018) AVC Ukr/Eng | Sub Eng 11FrYkT  8 / 0   1.7 GB   2019-11-17 10:41 
0mage0 
VIP


З нами з: 06.10.15
Востаннє: 18.09.20
Повідомлень: 696

2019-11-19 16:38  
Дивитися можна, такий собі кінотеатр. Не вийшов новотвір, оскільки слово кінотеатр вже є унормованим. Маю на увазі, що п'єса створена для театру, а тут зняли кіно. І як завжди у Шекспіра, всі постійно труять одне одного та самих себе Happy Джедайка гарно зіграла роль Офелії.
Ваш часовий пояс: GMT + 2 Години

Нова тема   Відповісти