Формула 1. Сезон 2019. Етап 20. Гран-Прі Бразилії. Кваліфікація (16.11.2019) 720p 50fps Ukr/Eng/Int

Нові коментарі

Нова тема   Відповісти
Автор Повідомлення
sergiyko.5 
VIP


З нами з: 25.02.16
Востаннє: 23.10.20
Повідомлень: 3611

2019-11-18 01:39  
Формула 1. Сезон 2019. Етап 20. Гран-Прі Бразилії. Кваліфікація (16.11.2019) 720p 50fps

Формула 1. Сезон 2019. Етап 20. Гран-Прі Бразилії. Кваліфікація (16.11.2019) 720p 50fps Ukr/Eng/Int

Жанр: Перегони Формули 1
Країна: Бразилія
Телеканал: FEED
Коментатор: Максим Подзігун, Sky Sports

Опис:
Кваліфікація 20 етапу Гран-Прі Бразилії 2019 року.


Якість:

Відео: кодек: розмір кадру: 1280 х 720 бітрейт: 5100 кб/с
Аудіо 1: мова: українська кодек: 2.0 бітрейт: 192 кб/с
Аудіо 2: мова: англійська кодек: 5.1 бітрейт: 384 кб/с
Аудіо 3: мова: відсутня кодек: 5.1 бітрейт: 448 кб/с
Тривалість:
01:14:17
Про файл:
General
Unique ID : 80684933052581079870821847321491023942 (0x3CB35A55357A0BF7D56A7E842F4C2846)
Complete name : D:\Documents\Torrents\SPORT\F1.2019.20.Brazil.Qualifying..720p.50fps.
Format :
Format version : Version 4
File size : 3.19 GiB
Duration : 1 h 14 min
Overall bit rate : 6 139 kb/s
Encoded date : UTC 2019-11-17 22:29:57
Writing application : v39.0.0 ('In The Waiting Line') 64-bit
Writing library : libebml v1.3.9 + v1.5.2

Video
ID : 1
Format : AVC
Format/Info : Advanced Video Codec
Format profile : [email protected]
Format settings : CABAC / 4 Ref Frames
Format settings, CABAC : Yes
Format settings, Reference : 4 frames
Codec ID : V_MPEG4/ISO/AVC
Duration : 1 h 14 min
Bit rate : 5 111 kb/s
Width : 1 280 pixels
Height : 720 pixels
Display aspect ratio : 16:9
Frame rate mode : Constant
Frame rate : 50.000 FPS
Color space : YUV
Chroma subsampling : 4:2:0
Bit depth : 8 bits
Scan type : Progressive
Bits/(Pixel*Frame) : 0.111
Stream size : 2.65 GiB (83%)
Language : English
Default : Yes
Forced : No
Color range : Limited
Color primaries : BT.709
Transfer characteristics : BT.709
Matrix coefficients : BT.709

Audio #1
ID : 2
Format : AC-3
Format/Info : Audio Coding 3
Commercial name : Dolby Digital
Codec ID : A_AC3
Duration : 1 h 14 min
Bit rate mode : Constant
Bit rate : 192 kb/s
Channel(s) : 2 channels
Channel layout : L R
Sampling rate : 48.0 kHz
Frame rate : 31.250 FPS (1536 SPF)
Bit depth : 16 bits
Compression mode : Lossy
Delay relative to video : 16 ms
Stream size : 102 MiB (3%)
Title : Максим Подзігун
Language : Ukrainian
Service kind : Complete Main
Default : Yes
Forced : No

Audio #2
ID : 3
Format : AC-3
Format/Info : Audio Coding 3
Commercial name : Dolby Digital
Codec ID : A_AC3
Duration : 1 h 14 min
Bit rate mode : Constant
Bit rate : 384 kb/s
Channel(s) : 6 channels
Channel layout : L R C LFE Ls Rs
Sampling rate : 48.0 kHz
Frame rate : 31.250 FPS (1536 SPF)
Bit depth : 16 bits
Compression mode : Lossy
Delay relative to video : 26 ms
Stream size : 204 MiB (6%)
Title : SkySports F1
Language : English
Service kind : Complete Main
Default : No
Forced : No

Audio #3
ID : 4
Format : AC-3
Format/Info : Audio Coding 3
Commercial name : Dolby Digital
Codec ID : A_AC3
Duration : 1 h 14 min
Bit rate mode : Constant
Bit rate : 448 kb/s
Channel(s) : 6 channels
Channel layout : L R C LFE Ls Rs
Sampling rate : 48.0 kHz
Frame rate : 31.250 FPS (1536 SPF)
Bit depth : 16 bits
Compression mode : Lossy
Delay relative to video : 26 ms
Stream size : 238 MiB (7%)
Title : Natural Sounds
Service kind : Complete Main
Default : No
Forced : No
Скріншоти:


Запис/ріп: Shewa1
Зведення: sergiyko


 Трекер:    Зареєстрований   

Завантажити / скачати торрент



відео для новачків



 Зареєстрований:   2019-11-18 01:57
 Розмір:   3.19 GB 
 Оцінка:   10/10 (Голосів: 9)
   
sergiyko.5 
VIP


З нами з: 25.02.16
Востаннє: 23.10.20
Повідомлень: 3611

2019-11-30 18:21  
Квали Абу-Дабі не буде, немає запису коментаря Подзігуна.
Umbrella.Corps 
Свій


З нами з: 09.04.17
Востаннє: 27.09.20
Повідомлень: 60

2019-11-30 21:25  
sergiyko.5
=(
ну ок)

sergiyko.5 
VIP


З нами з: 25.02.16
Востаннє: 23.10.20
Повідомлень: 3611

2019-12-01 00:07  
Нічого хорошого немає. Не розумію, чого добивається Подзігун, щоб в інтернеті залишились тільки російськомовні коментарі? Файли за ті що бере плату з його записами глючні слайд-шоу. Вони залиті на фекс, і з часом зникнуть звідти.
кокошнік 
Попереджень: 1
Попереджень: 1 


З нами з: 09.06.15
Востаннє: 27.05.20
Повідомлень: 2139

2019-12-01 13:57  
sergiyko.5 написано:
Нічого хорошого немає. Не розумію, чого добивається Подзігун, щоб в інтернеті залишились тільки російськомовні коментарі? Файли за ті що бере плату з його записами глючні слайд-шоу. Вони залиті на фекс, і з часом зникнуть звідти.

ні, він хоче щоб появився новий коментатор, склав йому конкуренцію та потім його замінив, тільки про це не говорить прямо, вирощує заміну не словом а ділом, мол додумайтеся самі коли ви розумні...

Ваш часовий пояс: GMT + 2 Години

Нова тема   Відповісти