Формула 1. Сезон 2019. Етап 20. Гран-Прі Бразилії. Гонка (17.11.2019) 1080p 2xUkr

Нові коментарі

Нова тема   Відповісти
Автор Повідомлення
sergiyko.5 
VIP


З нами з: 25.02.16
Востаннє: 25.10.20
Повідомлень: 3615

2019-11-18 00:54  
Формула 1. Сезон 2019. Етап 20. Гран-Прі Бразилії. Гонка (17.11.2019) 1080p 2xUkr

Формула 1. Сезон 2019. Етап 20. Гран-Прі Бразилії. Гонка (17.11.2019) 1080p 2xUkr

Жанр: Перегони Формули 1
Країна: Бразилія
Телеканал: Setanta Sports
Коментатор: Максим Подзігун, Роман Гончаров

Опис:
Гонка 20 етапу Гран-Прі Бразилії 2019 року.


Якість:

Відео: кодек: розмір кадру: 1920 х 1080 бітрейт: 6100 кб/с
Аудіо 1: мова: українська кодек: 2.0 бітрейт: 192 кб/с
Аудіо 2: мова: українська кодек: 2.0 бітрейт: 192 кб/с
Тривалість:
01:59:50
Про файл:
General
Unique ID : 217230311391090457292912807280670677838 (0xA36D09415DDF265B55091C38BC741B4E)
Complete name : D:\Documents\Torrents\SPORT\F1.2019.20.Brazil.Race.1080p..Ukr.
Format :
Format version : Version 4
File size : 5.43 GiB
Duration : 1 h 59 min
Overall bit rate mode : Variable
Overall bit rate : 6 488 kb/s
Movie name : rip by sergiyko
Encoded date : UTC 2019-11-17 21:49:27
Writing application : v39.0.0 ('In The Waiting Line') 64-bit
Writing library : libebml v1.3.9 + v1.5.2

Video
ID : 1
Format : AVC
Format/Info : Advanced Video Codec
Format profile : [email protected]
Format settings : CABAC / 3 Ref Frames
Format settings, CABAC : Yes
Format settings, Reference : 3 frames
Codec ID : V_MPEG4/ISO/AVC
Duration : 1 h 59 min
Bit rate mode : Variable
Bit rate : 6 101 kb/s
Maximum bit rate : 7 500 kb/s
Width : 1 920 pixels
Height : 1 080 pixels
Display aspect ratio : 16:9
Frame rate mode : Variable
Frame rate : 24.764 FPS
Original frame rate : 25.000 FPS
Color space : YUV
Chroma subsampling : 4:2:0
Bit depth : 8 bits
Scan type : Progressive
Bits/(Pixel*Frame) : 0.119
Stream size : 5.11 GiB (94%)
Language : English
Default : Yes
Forced : No

Audio #1
ID : 2
Format : AC-3
Format/Info : Audio Coding 3
Commercial name : Dolby Digital
Codec ID : A_AC3
Duration : 1 h 59 min
Bit rate mode : Constant
Bit rate : 192 kb/s
Channel(s) : 2 channels
Channel layout : L R
Sampling rate : 48.0 kHz
Frame rate : 31.250 FPS (1536 SPF)
Bit depth : 16 bits
Compression mode : Lossy
Delay relative to video : 18 ms
Stream size : 165 MiB (3%)
Title : Максим Подзігун
Language : Ukrainian
Service kind : Complete Main
Default : Yes
Forced : No

Audio #2
ID : 3
Format : AC-3
Format/Info : Audio Coding 3
Commercial name : Dolby Digital
Codec ID : A_AC3
Duration : 1 h 59 min
Bit rate mode : Constant
Bit rate : 192 kb/s
Channel(s) : 2 channels
Channel layout : L R
Sampling rate : 48.0 kHz
Frame rate : 31.250 FPS (1536 SPF)
Bit depth : 16 bits
Compression mode : Lossy
Delay relative to video : 18 ms
Stream size : 165 MiB (3%)
Title : Роман Гончаров
Language : Ukrainian
Service kind : Complete Main
Default : No
Forced : No
Скріншоти:


Запис/зведення: sergiyko


 Трекер:    Зареєстрований   

Завантажити / скачати торрент



відео для новачків



 Зареєстрований:   2019-11-18 00:54
 Розмір:   5.43 GB 
 Оцінка:   9.9/10 (Голосів: 21)
   
Sadandr 
Новенький


З нами з: 02.12.16
Востаннє: 24.10.20
Повідомлень: 5

2019-11-18 08:02  
Дуже дякую за можливість оперативно подивитись гонку, яка виявилася однією з найкращих в сезоні ( з точки зору видовища). А також дякую за кваліфікацію, попри всі проблеми зі скачуванням у Подзигуна...
Ваш часовий пояс: GMT + 2 Години

Нова тема   Відповісти