Спільнота (Сезон 1) / The Society (Season 1) (2019) 720p Ukr/Eng | sub Eng/Multi

Нові коментарі

Нова тема   Відповісти
Автор Повідомлення
Anonymous 







2019-11-17 18:59  
Спільнота (Сезон 1) / The Society (Season 1) (2019) 720p Ukr/Eng | sub Eng/Multi

Спільнота (Сезон 1) / The Society (Season 1) (2019) 720p Ukr/Eng | sub Eng/Multi


Жанр: драма, містика, фантастика
Країна: США



Кінокомпанія: NetFlix
Режисер: Марк Вебб, Річ Лі, Бретт Саймон
Актори: Кетрін Ньютон, Гідеон Адлон, Шон Берді, Наташа Лю Бордіццо, Олівія ДеДжонг, Алекс Фітцалан, Крістін Фросет, Хосе Джуліан, Алекс МакНіколл, Тобі Воллес, Спенсер Хаус, Еміліо Гарсія-Санчес, Олівія Нікканен, Грейс Вікторія Кокс, Наомі Олівер, Келлі Голден

Сюжет:
Сюжет серіалу «Суспільство» (Спільнота) розгортається в невеликому містечку, з якого дивним чином зникли всі дорослі. Спочатку підлітки знаходять повну свободу забавною, але потім ситуація виходь з-під контролю. Багатенькі дівчатка і хлопчики залишившись без батьківського нагляду, щосили намагаються зрозуміти, що з ними сталося, і як їм все це виправити. Але для цього вони повинні встановити порядок і дотримуватися певних норм громадянського суспільства. Тільки так вони зможуть вижити. Тепер вони відповідальні самі за себе, і якщо вони не дійдуть згоди, то все може закінчитися дуже погано...


Тривалість: 1 серія: ~60 хв. (цілком серій: 10)
Перелік серій
1. What Happened?
2. Our Town
3. Childhood's End
4. Drop by Drop
5. Putting on the Clothes
6. Like A F-ing God or Something
7. Allie's Rules
8. Poison
9. New Names
10. How It Happens
Якість:
Відео:
кодек:
розмір кадру: 1280 х 720
бітрейт: 2610 кб/с

Аудіо # 1:
мова: українська
переклад: багатоголосий закадровий
кодек: 2.0
бітрейт: 192 кб/с

Аудіо # 2:
мова: англійська
переклад: оригінал
кодек: E- 5.1
бітрейт: 768 кб/с

Джерело озвучення:
DniproFilm

Субтитри:
мова: англійська, англійська (Forced, SDH), арабська, данська, німецька, грецька, іспанська, іспанська (європ.), фінська, французька, гебрейська, індонезійська, італійська, японська, корейська, норвезька, нідерландська, польська, португальська, португальська (браз.), румунська, шведська, тайська, турецька, китайська, китайська (традиц.)
тип: програмні (м'які)
формат: *.srt
Info
Код:
General
Unique ID                                : 27723196218288187682793840579342150923 (0x14DB4B1AA14B6746D2C4BE6C4B42AD0B)
Complete name                            : The Society S01E01 (2019) 720p [Ukr_Eng] [Hurtom].
Format                                   :
Format version                           : Version 4
File size                                : 1.43 GiB
Duration                                 : 58 min 27 s
Overall bit rate mode                    : Variable
Overall bit rate                         : 3 503 kb/s
Movie name                               : Спільнота (Сезон 1, серія 1) (2019)
Encoded date                             : UTC 2019-10-29 21:05:58
Writing application                      : v30.1.0 ('Forever And More') 64-bit
Writing library                          : libebml v1.3.6 + v1.4.9
Cover                                    : Yes
Attachments                              : cover.jpg

Video
ID                                       : 1
Format                                   : AVC
Format/Info                              : Advanced Video Codec
Format profile                           : [email protected]
Format settings                          : CABAC / 3 Ref Frames
Format settings, CABAC                   : Yes
Format settings, ReFrames                : 3 frames
Codec ID                                 : V_MPEG4/ISO/AVC
Duration                                 : 58 min 27 s
Bit rate mode                            : Variable
Bit rate                                 : 2 610 kb/s
Maximum bit rate                         : 3 915 kb/s
Width                                    : 1 280 pixels
Height                                   : 720 pixels
Display aspect ratio                     : 16:9
Frame rate mode                          : Constant
Frame rate                               : 23.976 (24000/1001) FPS
Color space                              : YUV
Chroma subsampling                       : 4:2:0
Bit depth                                : 8 bits
Scan type                                : Progressive
Bits/(Pixel*Frame)                       : 0.118
Stream size                              : 1.04 GiB (72%)
Writing library                          : core 148 r2715 7e75228
Encoding settings                        : cabac=1 / ref=3 / deblock=1:0:0 / analyse=0x1:0x111 / me=umh / subme=10 / psy=1 / psy_rd=1.00:0.00 / mixed_ref=1 / me_range=24 / chroma_me=1 / trellis=2 / 8x8dct=0 / cqm=0 / deadzone=21,11 / fast_pskip=1 / chroma_qp_offset=-2 / threads=8 / lookahead_threads=1 / sliced_threads=0 / nr=0 / decimate=1 / interlaced=0 / bluray_compat=0 / stitchable=1 / constrained_intra=0 / bframes=2 / b_pyramid=0 / b_adapt=2 / b_bias=0 / direct=3 / weightb=1 / open_gop=0 / weightp=2 / keyint=48 / keyint_min=25 / scenecut=0 / intra_refresh=0 / rc_lookahead=48 / rc=2pass / mbtree=1 / bitrate=2610 / ratetol=1.0 / qcomp=0.50 / qpmin=6 / qpmax=51 / qpstep=4 / cplxblur=20.0 / qblur=0.5 / vbv_maxrate=3915 / vbv_bufsize=5220 / nal_hrd=vbr / filler=0 / ip_ratio=1.40 / aq=1:1.00
Language                                 : English
Default                                  : Yes
Forced                                   : No

Audio #1
ID                                       : 2
Format                                   : AC-3
Format/Info                              : Audio Coding 3
Commercial name                          : Dolby Digital
Codec ID                                 : A_AC3
Duration                                 : 58 min 27 s
Bit rate mode                            : Constant
Bit rate                                 : 192 kb/s
Channel(s)                               : 2 channels
Channel layout                           : L R
Sampling rate                            : 48.0 kHz
Frame rate                               : 31.250 FPS (1536 SPF)
Bit depth                                : 16 bits
Compression mode                         : Lossy
Stream size                              : 80.3 MiB (5%)
Language                                 : Ukrainian
Service kind                             : Complete Main
Default                                  : Yes
Forced                                   : Yes

Audio #2
ID                                       : 3
Format                                   : E-AC-3 JOC
Format/Info                              : Enhanced AC-3 with Joint Object Coding
Commercial name                          : Dolby Digital Plus with Dolby Atmos
Codec ID                                 : A_EAC3
Duration                                 : 58 min 27 s
Bit rate mode                            : Constant
Bit rate                                 : 768 kb/s
Channel(s)                               : 6 channels
Channel layout                           : L R C LFE Ls Rs
Sampling rate                            : 48.0 kHz
Frame rate                               : 31.250 FPS (1536 SPF)
Compression mode                         : Lossy
Stream size                              : 321 MiB (22%)
Title                                    : English
Language                                 : English
Service kind                             : Complete Main
Default                                  : No
Forced                                   : No
Complexity index                         : 16
Number of dynamic objects                : 15
Bed channel count                        : 1 channel
Bed channel configuration                : LFE

Text #1
ID                                       : 4
Format                                   : UTF-8
Codec ID                                 : S_TEXT/UTF8
Codec ID/Info                            : UTF-8 Plain Text
Duration                                 : 35 min 58 s
Bit rate                                 : 1 b/s
Count of elements                        : 15
Stream size                              : 373 Bytes (0%)
Title                                    : Forced
Language                                 : English
Default                                  : No
Forced                                   : No

Text #2
ID                                       : 5
Format                                   : UTF-8
Codec ID                                 : S_TEXT/UTF8
Codec ID/Info                            : UTF-8 Plain Text
Duration                                 : 56 min 47 s
Bit rate                                 : 55 b/s
Count of elements                        : 808
Stream size                              : 23.1 KiB (0%)
Language                                 : English
Default                                  : No
Forced                                   : No

Text #3
ID                                       : 6
Format                                   : UTF-8
Codec ID                                 : S_TEXT/UTF8
Codec ID/Info                            : UTF-8 Plain Text
Duration                                 : 57 min 7 s
Bit rate                                 : 62 b/s
Count of elements                        : 930
Stream size                              : 26.2 KiB (0%)
Title                                    : SDH
Language                                 : English
Default                                  : No
Forced                                   : No

Text #4
ID                                       : 7
Format                                   : UTF-8
Codec ID                                 : S_TEXT/UTF8
Codec ID/Info                            : UTF-8 Plain Text
Duration                                 : 54 min 57 s
Bit rate                                 : 92 b/s
Count of elements                        : 804
Stream size                              : 37.4 KiB (0%)
Language                                 : Arabic
Default                                  : No
Forced                                   : No

Text #5
ID                                       : 8
Format                                   : UTF-8
Codec ID                                 : S_TEXT/UTF8
Codec ID/Info                            : UTF-8 Plain Text
Duration                                 : 54 min 57 s
Bit rate                                 : 49 b/s
Count of elements                        : 742
Stream size                              : 19.7 KiB (0%)
Language                                 : Danish
Default                                  : No
Forced                                   : No

Text #6
ID                                       : 9
Format                                   : UTF-8
Codec ID                                 : S_TEXT/UTF8
Codec ID/Info                            : UTF-8 Plain Text
Duration                                 : 54 min 57 s
Bit rate                                 : 49 b/s
Count of elements                        : 739
Stream size                              : 20.0 KiB (0%)
Language                                 : German
Default                                  : No
Forced                                   : No

Text #7
ID                                       : 10
Format                                   : UTF-8
Codec ID                                 : S_TEXT/UTF8
Codec ID/Info                            : UTF-8 Plain Text
Duration                                 : 54 min 57 s
Bit rate                                 : 84 b/s
Count of elements                        : 780
Stream size                              : 34.1 KiB (0%)
Language                                 : Greek
Default                                  : No
Forced                                   : No

Text #8
ID                                       : 11
Format                                   : UTF-8
Codec ID                                 : S_TEXT/UTF8
Codec ID/Info                            : UTF-8 Plain Text
Duration                                 : 54 min 57 s
Bit rate                                 : 51 b/s
Count of elements                        : 772
Stream size                              : 20.9 KiB (0%)
Language                                 : Spanish
Default                                  : No
Forced                                   : No

Text #9
ID                                       : 12
Format                                   : UTF-8
Codec ID                                 : S_TEXT/UTF8
Codec ID/Info                            : UTF-8 Plain Text
Duration                                 : 54 min 57 s
Bit rate                                 : 48 b/s
Count of elements                        : 778
Stream size                              : 19.4 KiB (0%)
Title                                    : European
Language                                 : Spanish
Default                                  : No
Forced                                   : No

Text #10
ID                                       : 13
Format                                   : UTF-8
Codec ID                                 : S_TEXT/UTF8
Codec ID/Info                            : UTF-8 Plain Text
Duration                                 : 54 min 57 s
Bit rate                                 : 46 b/s
Count of elements                        : 670
Stream size                              : 18.9 KiB (0%)
Language                                 : Finnish
Default                                  : No
Forced                                   : No

Text #11
ID                                       : 14
Format                                   : UTF-8
Codec ID                                 : S_TEXT/UTF8
Codec ID/Info                            : UTF-8 Plain Text
Duration                                 : 54 min 57 s
Bit rate                                 : 46 b/s
Count of elements                        : 763
Stream size                              : 18.9 KiB (0%)
Language                                 : French
Default                                  : No
Forced                                   : No

Text #12
ID                                       : 15
Format                                   : UTF-8
Codec ID                                 : S_TEXT/UTF8
Codec ID/Info                            : UTF-8 Plain Text
Duration                                 : 54 min 57 s
Bit rate                                 : 86 b/s
Count of elements                        : 772
Stream size                              : 34.6 KiB (0%)
Language                                 : Hebrew
Default                                  : No
Forced                                   : No

Text #13
ID                                       : 16
Format                                   : UTF-8
Codec ID                                 : S_TEXT/UTF8
Codec ID/Info                            : UTF-8 Plain Text
Duration                                 : 54 min 57 s
Bit rate                                 : 52 b/s
Count of elements                        : 770
Stream size                              : 21.2 KiB (0%)
Language                                 : Indonesian
Default                                  : No
Forced                                   : No

Text #14
ID                                       : 17
Format                                   : UTF-8
Codec ID                                 : S_TEXT/UTF8
Codec ID/Info                            : UTF-8 Plain Text
Duration                                 : 54 min 57 s
Bit rate                                 : 46 b/s
Count of elements                        : 736
Stream size                              : 18.8 KiB (0%)
Language                                 : Italian
Default                                  : No
Forced                                   : No

Text #15
ID                                       : 18
Format                                   : UTF-8
Codec ID                                 : S_TEXT/UTF8
Codec ID/Info                            : UTF-8 Plain Text
Duration                                 : 54 min 57 s
Bit rate                                 : 43 b/s
Count of elements                        : 804
Stream size                              : 17.6 KiB (0%)
Language                                 : Japanese
Default                                  : No
Forced                                   : No

Text #16
ID                                       : 19
Format                                   : UTF-8
Codec ID                                 : S_TEXT/UTF8
Codec ID/Info                            : UTF-8 Plain Text
Duration                                 : 54 min 57 s
Bit rate                                 : 60 b/s
Count of elements                        : 802
Stream size                              : 24.5 KiB (0%)
Language                                 : Korean
Default                                  : No
Forced                                   : No

Text #17
ID                                       : 20
Format                                   : UTF-8
Codec ID                                 : S_TEXT/UTF8
Codec ID/Info                            : UTF-8 Plain Text
Duration                                 : 54 min 57 s
Bit rate                                 : 43 b/s
Count of elements                        : 782
Stream size                              : 17.3 KiB (0%)
Language                                 : Norwegian Bokmal
Default                                  : No
Forced                                   : No

Text #18
ID                                       : 21
Format                                   : UTF-8
Codec ID                                 : S_TEXT/UTF8
Codec ID/Info                            : UTF-8 Plain Text
Duration                                 : 54 min 57 s
Bit rate                                 : 44 b/s
Count of elements                        : 641
Stream size                              : 17.8 KiB (0%)
Language                                 : Dutch
Default                                  : No
Forced                                   : No

Text #19
ID                                       : 22
Format                                   : UTF-8
Codec ID                                 : S_TEXT/UTF8
Codec ID/Info                            : UTF-8 Plain Text
Duration                                 : 54 min 57 s
Bit rate                                 : 46 b/s
Count of elements                        : 740
Stream size                              : 18.8 KiB (0%)
Language                                 : Polish
Default                                  : No
Forced                                   : No

Text #20
ID                                       : 23
Format                                   : UTF-8
Codec ID                                 : S_TEXT/UTF8
Codec ID/Info                            : UTF-8 Plain Text
Duration                                 : 54 min 57 s
Bit rate                                 : 50 b/s
Count of elements                        : 746
Stream size                              : 20.5 KiB (0%)
Language                                 : Portuguese
Default                                  : No
Forced                                   : No

Text #21
ID                                       : 24
Format                                   : UTF-8
Codec ID                                 : S_TEXT/UTF8
Codec ID/Info                            : UTF-8 Plain Text
Duration                                 : 54 min 57 s
Bit rate                                 : 48 b/s
Count of elements                        : 799
Stream size                              : 19.4 KiB (0%)
Title                                    : Brazilian
Language                                 : Portuguese
Default                                  : No
Forced                                   : No

Text #22
ID                                       : 25
Format                                   : UTF-8
Codec ID                                 : S_TEXT/UTF8
Codec ID/Info                            : UTF-8 Plain Text
Duration                                 : 54 min 53 s
Bit rate                                 : 55 b/s
Count of elements                        : 724
Stream size                              : 22.2 KiB (0%)
Language                                 : Romanian
Default                                  : No
Forced                                   : No

Text #23
ID                                       : 26
Format                                   : UTF-8
Codec ID                                 : S_TEXT/UTF8
Codec ID/Info                            : UTF-8 Plain Text
Duration                                 : 54 min 58 s
Bit rate                                 : 46 b/s
Count of elements                        : 633
Stream size                              : 18.6 KiB (0%)
Language                                 : Swedish
Default                                  : No
Forced                                   : No

Text #24
ID                                       : 27
Format                                   : UTF-8
Codec ID                                 : S_TEXT/UTF8
Codec ID/Info                            : UTF-8 Plain Text
Duration                                 : 54 min 57 s
Bit rate                                 : 138 b/s
Count of elements                        : 811
Stream size                              : 55.6 KiB (0%)
Language                                 : Thai
Default                                  : No
Forced                                   : No

Text #25
ID                                       : 28
Format                                   : UTF-8
Codec ID                                 : S_TEXT/UTF8
Codec ID/Info                            : UTF-8 Plain Text
Duration                                 : 54 min 57 s
Bit rate                                 : 49 b/s
Count of elements                        : 792
Stream size                              : 19.8 KiB (0%)
Language                                 : Turkish
Default                                  : No
Forced                                   : No

Text #26
ID                                       : 29
Format                                   : UTF-8
Codec ID                                 : S_TEXT/UTF8
Codec ID/Info                            : UTF-8 Plain Text
Duration                                 : 54 min 57 s
Bit rate                                 : 59 b/s
Count of elements                        : 824
Stream size                              : 23.8 KiB (0%)
Title                                    : Simplified
Language                                 : Chinese
Default                                  : No
Forced                                   : No

Text #27
ID                                       : 30
Format                                   : UTF-8
Codec ID                                 : S_TEXT/UTF8
Codec ID/Info                            : UTF-8 Plain Text
Duration                                 : 54 min 57 s
Bit rate                                 : 52 b/s
Count of elements                        : 808
Stream size                              : 21.3 KiB (0%)
Title                                    : Traditional
Language                                 : Chinese
Default                                  : No
Forced                                   : No
Скріншоти









Джерело:


Бронзовий реліз (на рейтинг впливає 75% завантаженого)
 Трекер:    Зареєстрований   

Завантажити / скачати серіал українською



відео для новачків



 Зареєстрований:   2019-11-17 18:59
 Розмір:   12.25 GB 
 Оцінка серіалу:   10/10 (Голосів: 6)
   
Gingеrbread 
Поважний учасник


З нами з: 01.07.19
Востаннє: 11.12.19
Повідомлень: 222

2019-11-17 19:07  
Anonymous написано:

кодек: 5.1
бітрейт: 768 кб/с

аааааа...таке можливо?

leicheman 
Відео Гуртом - фільмокрай
Відео Гуртом - фільмокрай


З нами з: 03.07.14
Востаннє: 11.12.19
Повідомлень: 4269

2019-11-17 19:31  
Gingеrbread написано:
аааааа...таке можливо?

в останніх серіалах нетфліксу часто такий бітрейт зустрічається, але тут треба виправити в описі бо насправді E-AC-3

Додано через 1 хвилину 50 секунд:

а щодо серіалу, то досить не поганий вийшов. як і на imdb 7/10

Anonymous 







2019-11-17 20:59  
leicheman написано:
але тут треба виправити в описі бо насправді E-AC-3

так, дякую, при виборі цього кодека не було, а потім забув виправити

[email protected] 
Новенький


З нами з: 05.05.18
Востаннє: 11.12.19
Повідомлень: 5

2019-11-30 09:44  
Серіал сподобався. Дивиться з легкістю.
Ваш часовий пояс: GMT + 2 Години

Нова тема   Відповісти