Куля в голові (Bullet in the Head) / Die xue jie tou (1990) Remux 1080p Ukr/Chi | Sub Eng/Chi

Нові коментарі

Нова тема   Відповісти
Автор Повідомлення
MakRA 
VIP


З нами з: 10.11.18
Востаннє: 13.12.19
Повідомлень: 602

2019-11-17 18:59  
Куля в голові (Bullet in the Head) / Die xue jie tou (1990) Remux 1080p Ukr/Chi | Sub Eng/Chi


Альтернативні постери:




Жанр: екшн, кримінальний, драма
Країна: Гонконг



Кінокомпанія: Media 8 Entertainment, Bacon & Eggs, Santo Domingo Film & Music Video
Режисер: Джон Ву [John Woo]
Актори: Тоні Люн Чу Вай [Tony Chiu-Wai Leung], Джеккі Чун [Jacky Cheung], Уейз Лі [Waise Lee], Саймон Ям [Simon Yam], Фенніє Юень [Fennie Yuen], Йолінда Йам [Yolinda Yam], Джон Ву [John Woo], Шек Йін Лау [Shek Yin Lau], Чунг Лін [Chung Lam], Хі Чінг Пав [Hee Ching Paw]

Сюжет:
Троє друзів з Гонконгу відправляються в пошуках легкого заробітку в Сайгон, скориставшись хаосом, що панує там через війну. Але герої й не припускають, які їх чекають випробування: вступити в нерівний бій з місцевою мафією, військами комуністичного В'єтнаму, бігти з полону й довідатися, яка ж насправді ціна дружби: золото або куля в голові?


Тривалість: 02:10:57
Якість: Remux 1080p
Відео:
кодек:
розмір кадру: 1920 х 1080
бітрейт: 15,8 Mб/с

Аудіо # 1:
мова: українська
переклад: багатоголосий закадровий
кодек: 2.0
бітрейт: 192 кб/с

Аудіо # 2:
мова: китайська
переклад: оригінал | Cantonese
кодек: TrueHD 7.1
бітрейт: 2374 кб/с

Аудіо # 3:
мова: китайська
переклад: оригінал | Mandarin
кодек: 5.1
бітрейт: 640 кб/с

Субтитри # 1: (Full)
мова: англійська
тип: програмні (м'які)
формат: *.srt

Субтитри # 2: (Full) | Mandarin (Traditional)
мова: китайська
тип: програмні (м'які)
формат: *.srt
Info
General
Unique ID : 231565513059948492345589807785285545648 (0xAE35E54401CC52E826C74060A4F86EB0)
Complete name : I:\+Режисер Джон Ву [John Woo]\Die xue jie tou (Bullet in the Head) (1990) Remux 1080p UkrChi Sub EngChi [Hurtom].
Format :
Format version : Version 4
File size : 17.5 GiB
Duration : 2 h 10 min
Overall bit rate mode : Variable
Overall bit rate : 19.1 Mb/s
Movie name : Куля в голові (Bullet in the Head) / Die xue jie tou (1990) Remux 1080p Ukr/Chi | Sub Eng/Chi [Hurtom]
Encoded date : UTC 2019-11-17 16:02:30
Writing application : v25.0.0 ('Prog Noir') 64-bit
Writing library : libebml v1.3.6 + v1.4.9
Cover : Yes
Attachments : cover.jpg

Video
ID : 1
Format : AVC
Format/Info : Advanced Video Codec
Format profile : [email protected]
Format settings : CABAC / 4 Ref Frames
Format settings, CABAC : Yes
Format settings, Reference fra : 4 frames
Codec ID : V_MPEG4/ISO/AVC
Duration : 2 h 10 min
Bit rate mode : Variable
Bit rate : 15.8 Mb/s
Maximum bit rate : 20.0 Mb/s
Width : 1 920 pixels
Height : 1 080 pixels
Display aspect ratio : 16:9
Frame rate mode : Constant
Frame rate : 23.976 (24000/1001) FPS
Standard : NTSC
Color space : YUV
Chroma subsampling : 4:2:0
Bit depth : 8 bits
Scan type : Progressive
Bits/(Pixel*Frame) : 0.319
Stream size : 14.5 GiB (83%)
Title : Die xue jie tou (Bullet in the Head) (1990) Remux 1080p Ukr/Chi | Sub Eng/Chi [Hurtom]
Language : Ukrainian
Default : Yes
Forced : Yes
Color range : Limited
Color primaries : BT.709
Transfer characteristics : BT.709
Matrix coefficients : BT.709

Audio #1
ID : 2
Format : AC-3
Format/Info : Audio Coding 3
Commercial name : Dolby Digital
Codec ID : A_AC3
Duration : 2 h 10 min
Bit rate mode : Constant
Bit rate : 192 kb/s
Channel(s) : 2 channels
Channel layout : L R
Sampling rate : 48.0 kHz
Frame rate : 31.250 FPS (1536 SPF)
Bit depth : 16 bits
Compression mode : Lossy
Stream size : 180 MiB (1%)
Title : MVO [НТН] 2.0
Language : Ukrainian
Service kind : Complete Main
Default : Yes
Forced : Yes

Audio #2
ID : 3
Format : MLP FBA
Format/Info : Meridian Lossless Packing FBA
Commercial name : Dolby TrueHD
Codec ID : A_TRUEHD
Duration : 2 h 10 min
Bit rate mode : Variable
Bit rate : 2 374 kb/s
Maximum bit rate : 3 954 kb/s
Channel(s) : 8 channels
Channel layout : L R C LFE Ls Rs Lb Rb
Sampling rate : 48.0 kHz
Frame rate : 1 200.000 FPS (40 SPF)
Compression mode : Lossless
Delay relative to video : 83 ms
Stream size : 2.17 GiB (12%)
Title : Original TrueHD 7.1 | Cantonese
Language : Chinese
Default : No
Forced : No

Audio #3
ID : 4
Format : AC-3
Format/Info : Audio Coding 3
Commercial name : Dolby Digital
Codec ID : A_AC3
Duration : 2 h 10 min
Bit rate mode : Constant
Bit rate : 640 kb/s
Channel(s) : 6 channels
Channel layout : L R C LFE Ls Rs
Sampling rate : 48.0 kHz
Frame rate : 31.250 FPS (1536 SPF)
Bit depth : 16 bits
Compression mode : Lossy
Delay relative to video : 83 ms
Stream size : 599 MiB (3%)
Title : Original 5.1 | Mandarin
Language : Chinese
Service kind : Complete Main
Default : No
Forced : No

Text #1
ID : 5
Format : PGS
Muxing mode : zlib
Codec ID : S_HDMV/PGS
Codec ID/Info : Picture based subtitle format used on BDs/HD-DVDs
Duration : 2 h 7 min
Bit rate : 24.3 kb/s
Count of elements : 2452
Stream size : 22.1 MiB (0%)
Title : Eng (Full)
Language : English
Default : No
Forced : No

Text #2
ID : 6
Format : PGS
Muxing mode : zlib
Codec ID : S_HDMV/PGS
Codec ID/Info : Picture based subtitle format used on BDs/HD-DVDs
Duration : 2 h 7 min
Bit rate : 28.2 kb/s
Count of elements : 2453
Stream size : 25.6 MiB (0%)
Title : Chi (Full) | Mandarin (Traditional)
Language : Chinese
Default : No
Forced : No
Скріншоти
Джерело: &
Наданий сирий звук: п. OlegCena
Зведення звуку: п. Breniak
Окрема подяка п. Arsenfpu
Особиста оцінка: 10 - без зайвих вагань рекомендую всім!


Золотий реліз (завантажене не впливає на рейтинг)
 Трекер:    Зареєстрований   

Завантажити / скачати фільм українською



відео для новачків



 Зареєстрований:   2019-11-17 18:59
 Розмір:   17.51 GB 
 Оцінка фільму:   10/10 (Голосів: 2)
   
Інші релізи
   Куля в голові / Die xue jie tou (1990) AVC Arsenfpu  10 / 0   2.28 GB   2019-11-16 14:55 
   Куля в голові / Die xue jie tou (1990) Breniak  2 / 0   1.45 GB   2012-08-27 21:37 
Ваш часовий пояс: GMT + 2 Години

Нова тема   Відповісти