Супер шістка / Big Hero 6 (2014) 1080p H.265 Ukr/Eng | Sub Ukr/Eng

Нові коментарі

Нова тема   Відповісти
Автор Повідомлення
Anonymous 







2019-11-17 14:10  
Супер шістка / Big Hero 6 (2014) 1080p H.265 Ukr/Eng | Sub Ukr/Eng

Супер шістка / Big Hero 6 (2014) 1080p H.265 Ukr/Eng | Sub Ukr/Eng


Жанр: анімація, екшн, пригодницький, фантастика, комедія, сімейний
Країна: США
Кінокомпанія: Walt Disney Animation Studios, Walt Disney Pictures
Режисер: Дон Холл, Кріс Вільямс
Актори: Райан Поттер, Скотт Едсіт, Джеймі Чунг, ТіДжей Міллер, Дженесіс Родрігес, Деймон Уайанс мл., Майя Рудольф, Джеймс Кромвелл, Алан Тьюдік, Чарльз Адлер

Сюжет:
Юний Гіро Гамада - природжений винахідник і геній конструювання роботів. Разом зі старшим братом Тадаші вони втілюють в життя найсучасніші ідеї в Технічному університеті міста майбутнього Сан-Франсокіо. Після серії загадкових подій друзі опиняються в центрі підступної змови. Зневірившись, Гіро вирішує використовувати веселого і добродушного експериментального робота Беймакса, перепрограмувавши його в невразливу бойову машину.

Тривалість: 01:41:52
Якість:

Відео:
кодек: H.265 (HEVC)
розмір кадру: 1920 x 804
бітрейт: 5 719 кб/с
бітова глибина: 10 біт

Увага! Перед завантаженням переконайтесь, що ваш пристрій відтворення (та/або ПЗ) підтримує H.265 (HEVC)

Аудіо # 1:
мова: українська
переклад: професійний дубльований
кодек: 5.1
бітрейт: 1511 кб/с

Аудіо # 2:
мова: англійська
переклад: оригінал
кодек: 5.1
бітрейт: 1510 кб/с

Субтитри # 1-2: (Forced, Full)
мова: українська
тип: програмні (м'які)
формат: *.srt

Субтитри # 3-5: (Full, SDH, SDH-Colored)
мова: англійська
тип: програмні (м'які)
формат: *.srt


Info
Код:
General
Unique ID                                : 280937764460987530264730610125244306270 (0xD35AA532EF75DFC331C290C2D9DD935E)
Complete name                            : Big Hero 6 (2014) 1080p H.265 [UKR_ENG] [Hurtom].
Format                                   :
Format version                           : Version 4
File size                                : 6.22 GiB
Duration                                 : 1 h 41 min
Overall bit rate                         : 8 742 kb/s
Movie name                               : Супер шістка / Big Hero 6 (2014)
Encoded date                             : UTC 2019-11-17 11:56:00
Writing application                      : v20.0.0 ('I Am The Sun') 64-bit
Writing library                          : libebml v1.3.5 + v1.4.8
Cover                                    : Yes
Attachments                              : Cover.jpg

Video
ID                                       : 1
Format                                   : HEVC
Format/Info                              : High Efficiency Video Coding
Format profile                           : Main [email protected]@High
Codec ID                                 : V_MPEGH/ISO/HEVC
Duration                                 : 1 h 41 min
Bit rate                                 : 5 719 kb/s
Width                                    : 1 920 pixels
Height                                   : 804 pixels
Display aspect ratio                     : 2.40:1
Frame rate mode                          : Constant
Frame rate                               : 23.976 (24000/1001) FPS
Color space                              : YUV
Chroma subsampling                       : 4:2:0
Bit depth                                : 10 bits
Bits/(Pixel*Frame)                       : 0.155
Stream size                              : 4.07 GiB (65%)
Title                                    : Супер шістка / Big Hero 6 (2014)
Writing library                          : x265 3.1.2+1-76650bab70f9:[Windows][MSVC 1922][64 bit] 10bit
Encoding settings                        : cpuid=1111039 / frame-threads=3 / numa-pools=12 / wpp / no-pmode / no-pme / no-psnr / no-ssim / log-level=2 / input-csp=1 / input-res=1920x804 / interlace=0 / total-frames=132264 / level-idc=41 / high-tier=1 / uhd-bd=0 / ref=5 / no-allow-non-conformance / no-repeat-headers / annexb / no-aud / no-hrd / info / hash=0 / no-temporal-layers / open-gop / min-keyint=23 / keyint=240 / gop-lookahead=0 / bframes=12 / b-adapt=2 / b-pyramid / bframe-bias=0 / rc-lookahead=60 / lookahead-slices=4 / scenecut=40 / radl=0 / no-splice / no-intra-refresh / ctu=32 / min-cu-size=8 / rect / amp / max-tu-size=32 / tu-inter-depth=4 / tu-intra-depth=4 / limit-tu=1 / rdoq-level=2 / dynamic-rd=0.00 / no-ssim-rd / signhide / no-tskip / nr-intra=0 / nr-inter=0 / no-constrained-intra / no-strong-intra-smoothing / max-merge=4 / limit-refs=2 / limit-modes / me=3 / subme=7 / merange=57 / temporal-mvp / weightp / weightb / no-analyze-src-pics / deblock=-3:-3 / no-sao / no-sao-non-deblock / rd=6 / no-early-skip / no-rskip / no-fast-intra / no-tskip-fast / no-cu-lossless / no-b-intra / no-splitrd-skip / rdpenalty=0 / psy-rd=2.00 / psy-rdoq=1.00 / no-rd-refine / no-lossless / cbqpoffs=0 / crqpoffs=0 / rc=crf / crf=20.0 / qcomp=0.60 / qpstep=4 / stats-write=0 / stats-read=0 / vbv-maxrate=50000 / vbv-bufsize=50000 / vbv-init=0.9 / crf-max=0.0 / crf-min=0.0 / ipratio=1.40 / pbratio=1.30 / aq-mode=1 / aq-strength=1.00 / no-cutree / zone-count=0 / no-strict-cbr / qg-size=32 / no-rc-grain / qpmax=69 / qpmin=0 / no-const-vbv / sar=1 / overscan=0 / videoformat=5 / range=0 / colorprim=1 / transfer=1 / colormatrix=1 / chromaloc=0 / display-window=0cll=0,0 / min-luma=0 / max-luma=1023 / log2-max-poc-lsb=8 / vui-timing-info / vui-hrd-info / slices=1 / no-opt-qp-pps / no-opt-ref-list-length-pps / no-multi-pass-opt-rps / scenecut-bias=0.05 / no-opt-cu-delta-qp / no-aq-motion / no-hdr / no-hdr-opt / no-dhdr10-opt / no-idr-recovery-sei / analysis-reuse-level=5 / scale-factor=0 / refine-intra=0 / refine-inter=0 / refine-mv=0 / refine-ctu-distortion=0 / no-limit-sao / ctu-info=0 / no-lowpass-dct / refine-analysis-type=0 / copy-pic=1 / max-ausize-factor=1.0 / no-dynamic-refine / no-single-sei / no-hevc-aq / no-svt / no-field / qp-adaptation-range=1.00
Default                                  : Yes
Forced                                   : No
Color range                              : Limited
Color primaries                          : BT.709
Transfer characteristics                 : BT.709
Matrix coefficients                      : BT.709

Audio #1
ID                                       : 2
Format                                   :
Format/Info                              : Digital Theater Systems
Codec ID                                 : A_DTS
Duration                                 : 1 h 41 min
Bit rate mode                            : Constant
Bit rate                                 : 1 510 kb/s
Channel(s)                               : 6 channels
Channel layout                           : C L R Ls Rs LFE
Sampling rate                            : 48.0 kHz
Frame rate                               : 93.750 FPS (512 SPF)
Bit depth                                : 24 bits
Compression mode                         : Lossy
Stream size                              : 1.07 GiB (17%)
Title                                    : / 5.1 Ch / 1509 kbps / ПД
Language                                 : Ukrainian
Default                                  : Yes
Forced                                   : Yes

Audio #2
ID                                       : 3
Format                                   : ES XXCH
Format/Info                              : Digital Theater Systems
Commercial name                          : -ES Discrete
Codec ID                                 : A_DTS
Duration                                 : 1 h 41 min
Bit rate mode                            : Constant
Bit rate                                 : 1 509 kb/s
Channel(s)                               : 6 channels
Channel(s)_Original                      : 7 channels
ChannelLayout_Original                   : C L R Ls Rs Cs LFE
Sampling rate                            : 48.0 kHz
Frame rate                               : 93.750 FPS (512 SPF)
Bit depth                                : 24 bits
Compression mode                         : Lossy
Delay relative to video                  : 11 ms
Stream size                              : 1.07 GiB (17%)
Title                                    : -ES / 5.1 Ch / 1509 kbps / Original
Language                                 : English
Default                                  : No
Forced                                   : No

Text #1
ID                                       : 4
Format                                   : UTF-8
Codec ID                                 : S_TEXT/UTF8
Codec ID/Info                            : UTF-8 Plain Text
Duration                                 : 1 h 32 min
Bit rate                                 : 1 b/s
Count of elements                        : 22
Stream size                              : 884 Bytes (0%)
Title                                    : Forced
Language                                 : Ukrainian
Default                                  : Yes
Forced                                   : Yes

Text #2
ID                                       : 5
Format                                   : UTF-8
Codec ID                                 : S_TEXT/UTF8
Codec ID/Info                            : UTF-8 Plain Text
Duration                                 : 1 h 40 min
Bit rate                                 : 76 b/s
Count of elements                        : 1280
Stream size                              : 56.3 KiB (0%)
Title                                    : Full
Language                                 : Ukrainian
Default                                  : No
Forced                                   : No

Text #3
ID                                       : 6
Format                                   : UTF-8
Codec ID                                 : S_TEXT/UTF8
Codec ID/Info                            : UTF-8 Plain Text
Duration                                 : 1 h 39 min
Bit rate                                 : 52 b/s
Count of elements                        : 1479
Stream size                              : 38.0 KiB (0%)
Title                                    : Full
Language                                 : English
Default                                  : No
Forced                                   : No

Text #4
ID                                       : 7
Format                                   : UTF-8
Codec ID                                 : S_TEXT/UTF8
Codec ID/Info                            : UTF-8 Plain Text
Duration                                 : 1 h 40 min
Bit rate                                 : 59 b/s
Count of elements                        : 1745
Stream size                              : 44.0 KiB (0%)
Title                                    : SDH
Language                                 : English
Default                                  : No
Forced                                   : No

Text #5
ID                                       : 8
Format                                   : UTF-8
Codec ID                                 : S_TEXT/UTF8
Codec ID/Info                            : UTF-8 Plain Text
Duration                                 : 1 h 40 min
Bit rate                                 : 81 b/s
Count of elements                        : 1745
Stream size                              : 59.8 KiB (0%)
Title                                    : SDH-Colored
Language                                 : English
Default                                  : No
Forced                                   : No

Menu
00:00:00.000                             : en: 1. Hustle
00:07:15.685                             : en: 2. Nerd School
00:14:37.835                             : en: 3. Showcase
00:21:49.183                             : en: 4. Tragedy
00:24:32.888                             : en: 5. A New Friend
00:29:34.731                             : en: 6. Being Helpful
00:36:58.091                             : en: 7. Upgrade
00:44:18.322                             : en: 8. The Chase
00:50:49.088                             : en: 9. Fred's House
00:54:33.020                             : en:10. Training
01:00:44.140                             : en:11. Secret Lair
01:07:12.612                             : en:12. Big Reveal
01:11:54.644                             : en:13. Putting It All Together
01:16:26.665                             : en:14. Saving The Day!
01:24:44.162                             : en:15. The Portal
01:31:52.757                             : en:16. End Credits
Світлини




Джерело: &
Особиста оцінка: 0 - не дивився


 Трекер:    Зареєстрований   

Завантажити / скачати мультфільм українською



відео для новачків



 Зареєстрований:   2019-11-17 14:10
 Розмір:   6.22 GB 
 Оцінка мультфільму:   9.4/10 (Голосів: 5)
   
Інші релізи
   Супер шістка / Big Hero 6 (2014) [MP4, 640x] apvAltisimo  1 / 0   882 MB   2015-08-19 12:16 
   Супер шістка / Big Hero 6 (2014) patriot2305  19 / 0   1.46 GB   2015-04-10 06:33 
   Супер шістка / Big Hero 6 (2014) 1080p Ukr/Eng | Sub Ukr/Eng 11FrYkT  13 / 0   8.81 GB   2015-04-10 06:33 
   Супер шістка / Big Hero 6 (2014) 720p Ukr/Eng | Sub Ukr/Eng 11FrYkT  13 / 1   4.6 GB   2015-04-10 06:32 
   Супер шістка / Big Hero 6 (2014) 1080p 3D [Half OverUnder] Ukr/Eng | Sub Ukr/Eng vovang6  1 / 0   5.03 GB   2015-03-17 18:03 
   Супер шістка / Big Hero 6 (2014) AVC AngryBirdsUA  10 / 0   1.45 GB   2015-02-27 22:20 
Pasha707 
Новенький


З нами з: 19.08.17
Востаннє: 12.02.20
Повідомлень: 22

2019-11-17 21:14  
Будь ласка зробiть bd remux цього мультфильму
Anonymous 







2019-11-17 22:36  
Pasha707
А сенс? Дивлячись, на скількох роздачах Ви є сідером - так і хочеться робити Remux.

Ваш часовий пояс: GMT + 2 Години

Нова тема   Відповісти