Бункер / La cara oculta (2011) 720p Ukr/Spa

Нові коментарі

Нова тема   Відповісти
Автор Повідомлення
dragheart 
Свій


З нами з: 27.01.16
Востаннє: 16.01.21
Повідомлень: 128

2019-11-17 13:32  
Бункер / La cara oculta (2011) 720p Ukr/Spa

Бункер / La cara oculta (2011) 720p Ukr/Spa

Альтернативний постер


Подяка за постер mrgalser


Жанр: драма, містика, трилер
Країна: Колумбія, Іспанія



Кінокомпанія: Avalon / Cactus Flower / Dynamo / Fox International Productions
Режисер: Андрес Баіз
Актори: Клара Лаго, Куім Гутьєррес, Мартіна Гарсія, Марія Соледад Родрігез, Хосе Луїс Гарсія, Марсела Мар, Умберто Дорадо, Хуан Альфонсо Баптіста, Олександра Стюарт та інші

Сюжет:
Офіціантка Фабіана знайомиться з одним з випадкових відвідувачів, що переживають складний період у житті. Між ними спалахує пристрасть. Для дівчини все здається ідеальним: її коханий працює диригентом оркестру філармонії в Боготі і володіє величезним будинком. Однак незабаром з'являються непередбачені обставини. Поліція розслідує таємниче зникнення колишньої нареченої і подруги диригента, а сама дівчина починає відчувати, що в будинку відбувається щось дивне.


Тривалість: 01:36:10
Якість:
Відео:
кодек:
розмір кадру: 1 280 х 546
бітрейт: 6 716 кб/с

Аудіо # 1:
мова: українська
переклад: багатоголосий закадровий | DubLiCat (Olegolas, Оля Ілєнко, Тетяна Рябова, Олександра Ісаєнко, Євгеній Тітомир)
кодек: 5.1
бітрейт: 384 кб/с

Аудіо # 2:
мова: іспанська
переклад: оригінал
кодек: 5.1
бітрейт: 640 кб/с

Приєднуйтесь до нас у FaceBook та Telegram: DubLcat


Посилання на ТРЕЙЛЕР
Info
General
Unique ID : 1629892276249972474326596110190419631 (0x139E7E4BE47E69CEF1741007C949EAF)
Complete name : F:\La.cara.oculta.2011(DubLiCat).720..Ukr.Spa.
Format :
Format version : Version 4 / Version 2
File size : 5.31 GiB
Duration : 1h 36mn
Overall bit rate : 7 897 Kbps
Encoded date : UTC 2019-11-14 12:56:08
Writing application : v23.0.0 ('The Bride Said No') 64-bit
Writing library : libebml v1.3.6 + v1.4.9
DURATION : 01:36:10.528000000
NUMBER_OF_FRAMES : 180329
NUMBER_OF_BYTES : 276985344
_STATISTICS_WRITING_APP : v23.0.0 ('The Bride Said No') 64-bit
_STATISTICS_WRITING_DATE_UTC : 2019-11-14 12:56:08
_STATISTICS_TAGS : BPS DURATION NUMBER_OF_FRAMES NUMBER_OF_BYTES

Video
ID : 1
Format : AVC
Format/Info : Advanced Video Codec
Format profile : [email protected]
Format settings, CABAC : Yes
Format settings, ReFrames : 11 frames
Codec ID : V_MPEG4/ISO/AVC
Duration : 1h 36mn
Bit rate : 6 716 Kbps
Width : 1 280 pixels
Height : 546 pixels
Display aspect ratio : 2.35:1
Frame rate : 24.000 fps
Color space : YUV
Chroma subsampling : 4:2:0
Bit depth : 8 bits
Scan type : Progressive
Bits/(Pixel*Frame) : 0.400
Stream size : 4.51 GiB (85%)
Writing library : core 140 r2377 1ca7bb9
Encoding settings : cabac=1 / ref=11 / deblock=1:-3:-3 / analyse=0x3:0x133 / me=tesa / subme=10 / psy=1 / psy_rd=1.05:0.00 / mixed_ref=1 / me_range=16 / chroma_me=1 / trellis=2 / 8x8dct=1 / cqm=0 / deadzone=21,11 / fast_pskip=0 / chroma_qp_offset=-2 / threads=12 / lookahead_threads=2 / sliced_threads=0 / nr=0 / decimate=1 / interlaced=0 / bluray_compat=0 / constrained_intra=0 / bframes=9 / b_pyramid=2 / b_adapt=2 / b_bias=0 / direct=3 / weightb=1 / open_gop=0 / weightp=2 / keyint=250 / keyint_min=24 / scenecut=40 / intra_refresh=0 / rc=crf / mbtree=0 / crf=16.0 / qcomp=0.70 / qpmin=0 / qpmax=69 / qpstep=4 / ip_ratio=1.40 / pb_ratio=1.30 / aq=1:0.70
Language : English
Default : Yes
Forced : No
DURATION : 01:36:10.500000000
NUMBER_OF_FRAMES : 138492
NUMBER_OF_BYTES : 4956150754
_STATISTICS_WRITING_APP : v23.0.0 ('The Bride Said No') 64-bit
_STATISTICS_WRITING_DATE_UTC : 2019-11-14 12:56:08
_STATISTICS_TAGS : BPS DURATION NUMBER_OF_FRAMES NUMBER_OF_BYTES
Matrix coefficients : BT.709-5, BT.1361, IEC 61966-2-4 709, SMPTE RP177

Audio #1
ID : 2
Format : AC-3
Format/Info : Audio Coding 3
Mode extension : CM (complete main)
Codec ID : A_AC3
Duration : 1h 36mn
Bit rate mode : Constant
Bit rate : 384 Kbps
Channel(s) : 6 channels
Channel positions : Front: L C R, Side: L R, LFE
Sampling rate : 48.0 KHz
Bit depth : 16 bits
Compression mode : Lossy
Stream size : 264 MiB (5%)
Language : Ukrainian
Default : Yes
Forced : No

Audio #2
ID : 3
Format : AC-3
Format/Info : Audio Coding 3
Mode extension : CM (complete main)
Codec ID : A_AC3
Duration : 1h 36mn
Bit rate mode : Constant
Bit rate : 640 Kbps
Channel(s) : 6 channels
Channel positions : Front: L C R, Side: L R, LFE
Sampling rate : 48.0 KHz
Bit depth : 16 bits
Compression mode : Lossy
Stream size : 440 MiB (8%)
Language : Spanish
Default : No
Forced : No
Скріншоти




Джерело:
Особиста оцінка: 10 - без зайвих вагань рекомендую всім!


Авторський реліз (завантажувати можна без реєстрації)
 Трекер:    Зареєстрований   

Завантажити / скачати фільм українською



відео для новачків



 Зареєстрований:   2019-11-17 13:32
 Розмір:   5.31 GB 
 Оцінка фільму:   9.4/10 (Голосів: 19)
   
MutuLI 
Відео Гуртом - фільмокрай
Відео Гуртом - фільмокрай


З нами з: 08.03.09
Востаннє: 16.01.21
Повідомлень: 2051

2020-02-11 23:09  
тривалість тут 01:36:10
Akio Furukawa 
Поважний учасник


З нами з: 02.11.19
Востаннє: 17.01.21
Повідомлень: 153

2020-05-30 22:18  
Ох вже ж ці палкі іспанки — як завжди ревниві, мстиві та підступні, справжні яндере!
8/10

roboss 
Новенький


З нами з: 09.03.17
Востаннє: 16.01.21
Повідомлень: 24

2020-05-31 22:28  
колись дивився
досить непоганий сюжет
але вже забув деталі і закінчення
прийдеться ще раз передивитись
бо памятаю що сподобалосьHappy

[email protected] 
Новенький


З нами з: 23.02.16
Востаннє: 16.01.21
Повідомлень: 5

2020-06-06 15:20  
Бомбезний фільм!
Ваш часовий пояс: GMT + 2 Години

Нова тема   Відповісти