Франкенштейн / Frankenstein (2015) 1080p Ukr/Eng

Нові коментарі

Нова тема   Відповісти
Автор Повідомлення
Anonymous 







2019-11-17 13:11  
Франкенштейн / Frankenstein (2015) 1080p Ukr/Eng

Франкенштейн / Frankenstein (2015) 1080p Ukr/Eng


Жанр: жахи, фантастика, трилер
Країна: США, Німеччина



Кінокомпанія: Bad Badger, Eclectic Pictures, Summerstorm Entertainment
Режисер: Бернард Роуз
Актори: Керрі-Енн Мосс, Тоні Тодд, Денні Хюстон, Зав’єр Семюель, Джеймс Лью, Бернард Роуз

Сюжет:
Вчений зі своєю дружиною божеволіють, коли відкривають нові можливості науки. Вони щоразу детально розробляють кожний проект. В цей раз подружжя Франкенштейн оживили хлопця із тіл загиблих людей. Але вони розуміють, що створили монстра. Тіло хлопця старіє та перетворюється на страховисько.
Подружжя хочуть позбутися своєї помилки і вбивають потвору. Хлопець оживає і залишається самотнім на вулиці. Він думає наївно, як дитина і не розуміє чому його всі ображають. Коли страховиську уривається терпець, він починає відповідати агресією на зло: нищить, б’є і вбиває усе, що стає проти нього.

Екранізація роману Мері Шелі трохи відрізняється від оригіналу. Але фільм все одно залишається цікавою історією.


Тривалість: 01:29:25
Якість:
Відео:
кодек:
розмір кадру: 1920 х 1080
бітрейт: 9723 кб/с

Аудіо # 1:
мова: українська
переклад: багатоголосий закадровий
кодек: 2.0
бітрейт: 192 кб/с

Аудіо # 2:
мова: англійська
переклад: оригінал
кодек: 5.1
бітрейт: 754 кб/с

Джерело озвучення:
Info
General
Unique ID : 2758912725495740331029471087096473758 (0x21358E63DAFE8DA3EF30A447953A89E)
Complete name : Frankenstein (2015) 1080p [Ukr_Eng] [Hurtom].
Format :
Format version : Version 4
File size : 6.66 GiB
Duration : 1 h 29 min
Overall bit rate : 10.7 Mb/s
Movie name : Франкенштейн (2015)
Encoded date : UTC 2019-11-17 10:31:44
Writing application : v30.1.0 ('Forever And More') 64-bit
Writing library : libebml v1.3.6 + v1.4.9
Cover : Yes
Attachments : cover.jpg

Video
ID : 1
Format : AVC
Format/Info : Advanced Video Codec
Format profile : [email protected]
Format settings : CABAC / 4 Ref Frames
Format settings, CABAC : Yes
Format settings, ReFrames : 4 frames
Codec ID : V_MPEG4/ISO/AVC
Duration : 1 h 29 min
Bit rate : 9 723 kb/s
Width : 1 920 pixels
Height : 1 080 pixels
Display aspect ratio : 16:9
Frame rate mode : Constant
Frame rate : 23.976 FPS
Color space : YUV
Chroma subsampling : 4:2:0
Bit depth : 8 bits
Scan type : Progressive
Bits/(Pixel*Frame) : 0.196
Stream size : 6.07 GiB (91%)
Writing library : core 148 r2665 a01e339
Encoding settings : cabac=1 / ref=4 / deblock=1:0:0 / analyse=0x3:0x133 / me=umh / subme=7 / psy=1 / psy_rd=1.00:0.00 / mixed_ref=1 / me_range=16 / chroma_me=1 / trellis=1 / 8x8dct=1 / cqm=0 / deadzone=21,11 / fast_pskip=0 / chroma_qp_offset=-2 / threads=12 / lookahead_threads=2 / sliced_threads=0 / nr=0 / decimate=1 / interlaced=0 / bluray_compat=0 / constrained_intra=0 / bframes=3 / b_pyramid=2 / b_adapt=2 / b_bias=0 / direct=3 / weightb=1 / open_gop=0 / weightp=2 / keyint=250 / keyint_min=23 / scenecut=40 / intra_refresh=0 / rc_lookahead=50 / rc=2pass / mbtree=1 / bitrate=9723 / ratetol=1.0 / qcomp=0.60 / qpmin=0 / qpmax=69 / qpstep=4 / cplxblur=20.0 / qblur=0.5 / ip_ratio=1.40 / aq=1:1.00
Language : English
Default : Yes
Forced : No

Audio #1
ID : 2
Format : AC-3
Format/Info : Audio Coding 3
Commercial name : Dolby Digital
Codec ID : A_AC3
Duration : 1 h 29 min
Bit rate mode : Constant
Bit rate : 192 kb/s
Channel(s) : 2 channels
Channel layout : L R
Sampling rate : 48.0 kHz
Frame rate : 31.250 FPS (1536 SPF)
Bit depth : 16 bits
Compression mode : Lossy
Stream size : 123 MiB (2%)
Language : Ukrainian
Service kind : Complete Main
Default : Yes
Forced : Yes

Audio #2
ID : 3
Format :
Format/Info : Digital Theater Systems
Codec ID : A_DTS
Duration : 1 h 29 min
Bit rate mode : Constant
Bit rate : 754 kb/s
Channel(s) : 6 channels
Channel layout : C L R Ls Rs LFE
Sampling rate : 48.0 kHz
Frame rate : 93.750 FPS (512 SPF)
Bit depth : 24 bits
Compression mode : Lossy
Stream size : 483 MiB (7%)
Language : English
Default : No
Forced : No

Menu
00:00:00.000 : en:00:00:00.000
00:05:03.929 : en:00:05:03.929
00:10:05.396 : en:00:10:05.396
00:20:13.546 : en:00:20:13.546
00:30:10.058 : en:00:30:10.058
00:40:36.476 : en:00:40:36.476
00:50:22.186 : en:00:50:22.186
01:00:07.312 : en:01:00:07.312
01:05:06.444 : en:01:05:06.444
01:10:09.080 : en:01:10:09.080
01:20:09.763 : en:01:20:09.763
01:24:40.075 : en:01:24:40.075
Скріншоти





Джерело:


 Трекер:    Зареєстрований   

Завантажити / скачати фільм українською



відео для новачків



 Зареєстрований:   2019-11-17 13:11
 Розмір:   6.66 GB 
 Оцінка фільму:   -/10 (Голосів: 0)
   
Ваш часовий пояс: GMT + 2 Години

Нова тема   Відповісти