Бійцівський клуб / Fight Club (1999) 1080p H.265 2xUkr/Eng | Sub Ukr/Eng

Нові коментарі

Нова тема   Відповісти
Автор Повідомлення
Anonymous 







2019-11-17 00:17  
Бійцівський клуб / Fight Club (1999) 1080p H.265 2xUkr/Eng | Sub Ukr/Eng

Бійцівський клуб / Fight Club (1999) 1080p H.265 2xUkr/Eng | Sub Ukr/Eng


Жанр: драма
Країна: США, Німеччина
Кінокомпанія: Fox 2000 Pictures, Regency Enterprises, Linson Films
Режисер: Девід Фінчер
Актори: Едвард Нортон, Бред Піт, Гелена Бонем Картер, Міт Лоуф, Зак Ґренір, Річмонд Аркет, Джаред Лето та інші

Сюжет:
Джек, страждає хронічним безсонням і відчайдушно намагається вирватися з нудного життя. Саме тоді він зустрічає Тайлера Дердена, торговця із збоченою філософією. Тайлер впевнений, що самовдосконалення — доля слабких, а саморуйнування — єдине, заради чого варто жити. І ось вже Джек і Тайлер луплять один одному пики на стоянці перед баром, що приносить їм неабияке задоволення. Залучаючи інших чоловіків до простих радощів фізичної жорстокості, Джек і Тайлер засновують таємний Бійцівський Клуб, який має величезний успіх. Але Джека чекає шокуючи відкриття, здатне змінити все...

Тривалість: 02:19:07
Якість:

Відео:
кодек: H.265 (HEVC)
розмір кадру: 1920 x 800
бітрейт: 10 508 кб/с
бітова глибина: 10 біт

Увага! Перед завантаженням переконайтесь, що ваш пристрій відтворення (та/або ПЗ) підтримує H.265 (HEVC)

Аудіо # 1:
мова: українська
переклад: двоголосий закадровий
кодек: AC-3 2.0
бітрейт: 192 кб/с

Аудіо # 2:
мова: українська
переклад: двоголосий закадровий
кодек: AC-3 2.0
бітрейт: 192 кб/с

Аудіо # 3:
мова: англійська
переклад: оригінал
кодек: 5.1
бітрейт: 1510 кб/с

Аудіо # 4:
мова: англійська
переклад: оригінал | коментарі режисера Девіда Фінчера
кодек: AC-3 2.0
бітрейт: 224 кб/с

Аудіо # 5:
мова: англійська
переклад: оригінал | коментарі режисера Девіда Фінчера та акторів Бреда Піта, Едварда Нортона та Гелени Бонем Картер
кодек: AC-3 2.0
бітрейт: 224 кб/с

Аудіо # 6:
мова: англійська
переклад: оригінал | коментарі сценариста Джима Улса та письменника Чака Паланіка
кодек: AC-3 2.0
бітрейт: 224 кб/с

Аудіо # 7:
мова: англійська
переклад: оригінал | коментарі оператора-постановника Джефа Кроненвета, художника по костюмах Майкла Каплана, художника фільму Алекса МакДауела, головного сценариста по ефектах Кевіна Гоґа та комп'ютерного аніматора Дока Бейлі
кодек: AC-3 2.0
бітрейт: 224 кб/с

Субтитри # 1: (Full)
мова: українська
тип: програмні (м'які)
формат: *.srt

Субтитри # 2-6: (Full, Коментарі режисера, Коментарі режисера та акторів, Коментарі сценариста та письменника, Коментарі оператора-постановника, художника по костюмах, художника фільму, головного сценариста по ефектах та комп'ютерного аніматора)
мова: англійська
тип: програмні (м'які)
формат: *.


Info
Код:
General
Unique ID                                : 254670132600291764650309778934564082512 (0xBF97AEF55F861FE2B6DD50AAE5FF5350)
Complete name                            : Fight Club (1999) 1080p H.265 [2xUKR_ENG] [Hurtom].
Format                                   :
Format version                           : Version 4
File size                                : 12.9 GiB
Duration                                 : 2 h 19 min
Overall bit rate                         : 13.3 Mb/s
Movie name                               : Бійцівський клуб / Fight Club (1999)
Encoded date                             : UTC 2019-11-16 20:46:21
Writing application                      : v20.0.0 ('I Am The Sun') 64-bit
Writing library                          : libebml v1.3.5 + v1.4.8
Cover                                    : Yes
Attachments                              : Cover.jpg / CronosPro-Bold.ttf / CronosPro-Semibold.ttf / CronosPro-SemiboldIt.ttf

Video
ID                                       : 1
Format                                   : HEVC
Format/Info                              : High Efficiency Video Coding
Format profile                           : Main [email protected]@High
Codec ID                                 : V_MPEGH/ISO/HEVC
Duration                                 : 2 h 19 min
Bit rate                                 : 10.5 Mb/s
Width                                    : 1 920 pixels
Height                                   : 800 pixels
Display aspect ratio                     : 2.40:1
Frame rate mode                          : Constant
Frame rate                               : 23.976 (24000/1001) FPS
Color space                              : YUV
Chroma subsampling                       : 4:2:0
Bit depth                                : 10 bits
Bits/(Pixel*Frame)                       : 0.285
Stream size                              : 10.2 GiB (79%)
Title                                    : Бійцівський клуб / Fight Club (1999)
Writing library                          : x265 2.9+9-f74003e88622:[Windows][GCC 7.3.0][64 bit] 10bit
Encoding settings                        : cpuid=1111039 / frame-threads=13 / numa-pools=12 / wpp / no-pmode / no-pme / no-psnr / no-ssim / log-level=3 / input-csp=1 / input-res=1920x800 / interlace=0 / total-frames=0 / level-idc=41 / high-tier=1 / uhd-bd=0 / ref=5 / allow-non-conformance / no-repeat-headers / annexb / no-aud / no-hrd / info / hash=0 / no-temporal-layers / open-gop / min-keyint=24 / keyint=240 / gop-lookahead=0 / bframes=12 / b-adapt=2 / b-pyramid / bframe-bias=0 / rc-lookahead=60 / lookahead-slices=4 / scenecut=40 / radl=0 / no-intra-refresh / ctu=32 / min-cu-size=8 / rect / amp / max-tu-size=32 / tu-inter-depth=4 / tu-intra-depth=4 / limit-tu=1 / rdoq-level=1 / dynamic-rd=0.00 / no-ssim-rd / signhide / no-tskip / nr-intra=0 / nr-inter=0 / no-constrained-intra / no-strong-intra-smoothing / max-merge=4 / limit-refs=2 / limit-modes / me=3 / subme=7 / merange=57 / temporal-mvp / weightp / weightb / no-analyze-src-pics / deblock=-3:-3 / no-sao / no-sao-non-deblock / rd=6 / no-early-skip / rskip / no-fast-intra / no-tskip-fast / no-cu-lossless / no-b-intra / no-splitrd-skip / rdpenalty=0 / psy-rd=1.00 / psy-rdoq=1.00 / no-rd-refine / no-lossless / cbqpoffs=0 / crqpoffs=0 / rc=crf / crf=20.0 / qcomp=0.60 / qpstep=1 / stats-write=0 / stats-read=0 / vbv-maxrate=50000 / vbv-bufsize=50000 / vbv-init=0.9 / crf-max=30.0 / crf-min=0.0 / ipratio=1.40 / pbratio=1.30 / aq-mode=1 / aq-strength=1.00 / no-cutree / zone-count=0 / no-strict-cbr / qg-size=32 / no-rc-grain / qpmax=69 / qpmin=0 / no-const-vbv / sar=1 / overscan=0 / videoformat=5 / range=0 / colorprim=1 / transfer=1 / colormatrix=1 / chromaloc=0 / display-window=0 / max-cll=0,0 / min-luma=0 / max-luma=1023 / log2-max-poc-lsb=8 / vui-timing-info / vui-hrd-info / slices=1 / no-opt-qp-pps / no-opt-ref-list-length-pps / no-multi-pass-opt-rps / scenecut-bias=0.05 / no-opt-cu-delta-qp / no-aq-motion / no-hdr / no-hdr-opt / no-dhdr10-opt / no-idr-recovery-sei / analysis-reuse-level=5 / scale-factor=0 / refine-intra=0 / refine-inter=0 / refine-mv=0 / no-limit-sao / ctu-info=0 / no-lowpass-dct / refine-mv-type=0 / copy-pic=1 / max-ausize-factor=1.0 / no-dynamic-refine / no-single-sei
Default                                  : Yes
Forced                                   : No
Color range                              : Limited
Color primaries                          : BT.709
Transfer characteristics                 : BT.709
Matrix coefficients                      : BT.709

Audio #1
ID                                       : 2
Format                                   : AC-3
Format/Info                              : Audio Coding 3
Commercial name                          : Dolby Digital
Codec ID                                 : A_AC3
Duration                                 : 2 h 19 min
Bit rate mode                            : Constant
Bit rate                                 : 192 kb/s
Channel(s)                               : 2 channels
Channel layout                           : L R
Sampling rate                            : 48.0 kHz
Frame rate                               : 31.250 FPS (1536 SPF)
Bit depth                                : 16 bits
Compression mode                         : Lossy
Stream size                              : 191 MiB (1%)
Title                                    : / 2.0 Ch / 192 kbps / ДЗ / 2+2
Language                                 : Ukrainian
Service kind                             : Complete Main
Default                                  : Yes
Forced                                   : No

Audio #2
ID                                       : 3
Format                                   : AC-3
Format/Info                              : Audio Coding 3
Commercial name                          : Dolby Digital
Codec ID                                 : A_AC3
Duration                                 : 2 h 19 min
Bit rate mode                            : Constant
Bit rate                                 : 192 kb/s
Channel(s)                               : 2 channels
Channel layout                           : L R
Sampling rate                            : 48.0 kHz
Frame rate                               : 31.250 FPS (1536 SPF)
Bit depth                                : 16 bits
Compression mode                         : Lossy
Stream size                              : 191 MiB (1%)
Title                                    : / 2.0 Ch / 192 kbps / ДЗ / Новий канал
Language                                 : Ukrainian
Service kind                             : Complete Main
Default                                  : No
Forced                                   : No

Audio #3
ID                                       : 4
Format                                   :
Format/Info                              : Digital Theater Systems
Codec ID                                 : A_DTS
Duration                                 : 2 h 19 min
Bit rate mode                            : Constant
Bit rate                                 : 1 509 kb/s
Channel(s)                               : 6 channels
Channel layout                           : C L R Ls Rs LFE
Sampling rate                            : 48.0 kHz
Frame rate                               : 93.750 FPS (512 SPF)
Bit depth                                : 24 bits
Compression mode                         : Lossy
Stream size                              : 1.47 GiB (11%)
Title                                    : / 5.1 Ch / 1509 kbps / Original
Language                                 : English
Default                                  : No
Forced                                   : No

Audio #4
ID                                       : 5
Format                                   : AC-3
Format/Info                              : Audio Coding 3
Commercial name                          : Dolby Digital
Codec ID                                 : A_AC3
Duration                                 : 2 h 19 min
Bit rate mode                            : Constant
Bit rate                                 : 224 kb/s
Channel(s)                               : 2 channels
Channel layout                           : L R
Sampling rate                            : 48.0 kHz
Frame rate                               : 31.250 FPS (1536 SPF)
Bit depth                                : 16 bits
Compression mode                         : Lossy
Stream size                              : 223 MiB (2%)
Title                                    : / 2.0 Ch / 192 kbps / Original / Коментарі режисера
Language                                 : English
Service kind                             : Complete Main
Default                                  : No
Forced                                   : No

Audio #5
ID                                       : 6
Format                                   : AC-3
Format/Info                              : Audio Coding 3
Commercial name                          : Dolby Digital
Codec ID                                 : A_AC3
Duration                                 : 2 h 19 min
Bit rate mode                            : Constant
Bit rate                                 : 224 kb/s
Channel(s)                               : 2 channels
Channel layout                           : L R
Sampling rate                            : 48.0 kHz
Frame rate                               : 31.250 FPS (1536 SPF)
Bit depth                                : 16 bits
Compression mode                         : Lossy
Stream size                              : 223 MiB (2%)
Title                                    : / 2.0 Ch / 192 kbps / Original / Коментарі режисера та акторів
Language                                 : English
Service kind                             : Complete Main
Default                                  : No
Forced                                   : No

Audio #6
ID                                       : 7
Format                                   : AC-3
Format/Info                              : Audio Coding 3
Commercial name                          : Dolby Digital
Codec ID                                 : A_AC3
Duration                                 : 2 h 19 min
Bit rate mode                            : Constant
Bit rate                                 : 224 kb/s
Channel(s)                               : 2 channels
Channel layout                           : L R
Sampling rate                            : 48.0 kHz
Frame rate                               : 31.250 FPS (1536 SPF)
Bit depth                                : 16 bits
Compression mode                         : Lossy
Stream size                              : 223 MiB (2%)
Title                                    : / 2.0 Ch / 192 kbps / Original / Коментарі сценариста та письменника
Language                                 : English
Service kind                             : Complete Main
Default                                  : No
Forced                                   : No

Audio #7
ID                                       : 8
Format                                   : AC-3
Format/Info                              : Audio Coding 3
Commercial name                          : Dolby Digital
Codec ID                                 : A_AC3
Duration                                 : 2 h 19 min
Bit rate mode                            : Constant
Bit rate                                 : 224 kb/s
Channel(s)                               : 2 channels
Channel layout                           : L R
Sampling rate                            : 48.0 kHz
Frame rate                               : 31.250 FPS (1536 SPF)
Bit depth                                : 16 bits
Compression mode                         : Lossy
Stream size                              : 223 MiB (2%)
Title                                    : / 2.0 Ch / 192 kbps / Original / Коментарі оператора-постановника, художника по костюмах, художника фільму, головного сценариста по ефектах та комп'ютерного аніматора
Language                                 : English
Service kind                             : Complete Main
Default                                  : No
Forced                                   : No

Text #1
ID                                       : 9
Format                                   : UTF-8
Codec ID                                 : S_TEXT/UTF8
Codec ID/Info                            : UTF-8 Plain Text
Duration                                 : 2 h 17 min
Bit rate                                 : 118 b/s
Count of elements                        : 1827
Stream size                              : 119 KiB (0%)
Title                                    : Full
Language                                 : Ukrainian
Default                                  : No
Forced                                   : No

Text #2
ID                                       : 10
Format                                   :
Codec ID                                 : S_TEXT/
Codec ID/Info                            : Advanced Sub Station Alpha
Duration                                 : 2 h 16 min
Bit rate                                 : 125 b/s
Count of elements                        : 1810
Compression mode                         : Lossless
Stream size                              : 126 KiB (0%)
Title                                    : Full
Language                                 : English
Default                                  : No
Forced                                   : No

Text #3
ID                                       : 11
Format                                   :
Codec ID                                 : S_TEXT/
Codec ID/Info                            : Advanced Sub Station Alpha
Duration                                 : 2 h 18 min
Bit rate                                 : 132 b/s
Count of elements                        : 1582
Compression mode                         : Lossless
Stream size                              : 134 KiB (0%)
Title                                    : Коментарі режисера
Language                                 : English
Default                                  : No
Forced                                   : No

Text #4
ID                                       : 12
Format                                   :
Codec ID                                 : S_TEXT/
Codec ID/Info                            : Advanced Sub Station Alpha
Duration                                 : 2 h 19 min
Bit rate                                 : 162 b/s
Count of elements                        : 2036
Compression mode                         : Lossless
Stream size                              : 166 KiB (0%)
Title                                    : Коментарі режисера та акторів
Language                                 : English
Default                                  : No
Forced                                   : No

Text #5
ID                                       : 13
Format                                   :
Codec ID                                 : S_TEXT/
Codec ID/Info                            : Advanced Sub Station Alpha
Duration                                 : 2 h 19 min
Bit rate                                 : 86 b/s
Count of elements                        : 1084
Compression mode                         : Lossless
Stream size                              : 88.5 KiB (0%)
Title                                    : Коментарі сценариста та письменника
Language                                 : English
Default                                  : No
Forced                                   : No

Text #6
ID                                       : 14
Format                                   :
Codec ID                                 : S_TEXT/
Codec ID/Info                            : Advanced Sub Station Alpha
Duration                                 : 2 h 19 min
Bit rate                                 : 121 b/s
Count of elements                        : 1530
Compression mode                         : Lossless
Stream size                              : 124 KiB (0%)
Title                                    : Коментарі оператора-постановника, художника по костюмах, художника фільму, головного сценариста по ефектах та комп'ютерного аніматора
Language                                 : English
Default                                  : No
Forced                                   : No

Menu
00:00:00.054                             : en:00:00:00.054 / en:00:00:00.054 / en:00:00:00.054 / en:00:00:00.054
Світлини




Джерело: &
Особиста оцінка: 10 - без зайвих вагань рекомендую всім!


Срібний реліз (на рейтинг впливає 50% завантаженого)
 Трекер:    Зареєстрований   

Завантажити / скачати фільм українською



відео для новачків



 Зареєстрований:   2019-11-17 00:17
 Розмір:   12.93 GB 
 Оцінка фільму:   9.2/10 (Голосів: 5)
   
Ваш часовий пояс: GMT + 2 Години

Нова тема   Відповісти