Ван Хельсінг (Ван Гельсінг) / Van Helsing (2004) Remux 1080p 3xUkr/Eng | Sub Ukr/Eng

Нові коментарі

Нова тема   Відповісти
Автор Повідомлення
MakRA 
VIP


З нами з: 10.11.18
Востаннє: 12.12.19
Повідомлень: 600

2019-11-16 22:19  
Ван Хельсінг (Ван Гельсінг) / Van Helsing (2004) Remux 1080p 3xUkr/Eng | Sub Ukr/Eng


Альтернативні обкладинки:



Жанр: екшн, пригодницький, фентезі
Країна: США , Чехія



Кінокомпанія: Universal Pictures, Sommers Company, The, Stillking Films
Режисер: Стівен Сомерс [Stephen Sommers]
Актори: Г'ю Джекман [Hugh Jackman], Кейт Бекінсейл [Kate Beckinsale], Річард Роксбурґ [Richard Roxburgh], Девід Венем [David Wenham], Шулер Генслі [Shuler Hensley], Єлена Анайя [Elena Anaya], Вілл Кемп [Will Kemp], Кевін Дж. О'Коннор [Kevin J. O'Connor], Сільвія Цоллока [Silvia Colloca], Джозі Маран [Josie Maran]

Сюжет:
У таємничій країні Трансільванії небезпека підстерігає людей на кожному кроці. Сили Темряви готуються до вирішальної битви, і в старому замку граф Дракула намагається оживити своє мертвонароджене потомство.
Винахідник Віктор Франкенштейн, який дещо розуміє в переродженні, розгадує таємницю життя і за допомогою електрики оживляє моторошного монстра, який стає ключем до відродження нової раси вампірів.
За дорученням Ватикану мисливець за чудовиськами Ван Хелсінг повинен проникнути в лігво Дракули і знищити його самого і його моторошне потомство


Тривалість: 02:11:38
Якість: Remux 1080p
Відео:
кодек:
розмір кадру: 1920 х 1080
бітрейт: 26,9 Mб/с

Аудіо # 1:
мова: українська
переклад: багатоголосий закадровий
кодек: 2.0
бітрейт: 192 кб/с

Аудіо # 2:
мова: українська
переклад: двоголосий закадровий
кодек: 2.0
бітрейт: 192 кб/с

Аудіо # 3:
мова: українська
переклад: багатоголосий закадровий | студія "Так Треба Продакшн"
кодек: 2.0
бітрейт: 192 кб/с

Аудіо # 4:
мова: англійська
переклад: оригінал
кодек: -HD MA 5.1
бітрейт: 4565 кб/с

Аудіо # 5:
мова: англійська
переклад: оригінал
кодек: 5.1
бітрейт: 448 кб/с

Аудіо # 6:
мова: англійська
переклад: коментарі режисера Стівена Соммерса та продюсера Боб Дуксея
кодек: 2.0
бітрейт: 192 кб/с

Аудіо # 7:
мова: англійська
переклад: коментарі акторів Річарда Роксбурга, Шулера Генслі та Віллі Кемпа
кодек: 2.0
бітрейт: 192 кб/с

Субтитри # 1: (Full)
мова: українська
тип: програмні (м'які)
формат: *.srt

Субтитри # 2: (Full)
мова: англійська
тип: програмні (м'які)
формат: *.srt

Субтитри # 3: (SDH)
мова: англійська
тип: пререндерні
формат: *.pgs

Збережено оригінальні розділи, як на Blu-ray.
Info
General
Unique ID : 197156103471404946811096545988546313212 (0x9452E264119CD9928E85E21D48D6BBFC)
Complete name : I:\+Режисер Стівен Соммерс [Stephen Sommers]\Van Helsing (2004) Remux 1080p 3xUkrEng Sub UkrEng [Hurtom].
Format :
Format version : Version 4
File size : 30.3 GiB
Duration : 2 h 11 min
Overall bit rate mode : Variable
Overall bit rate : 32.9 Mb/s
Movie name : Ван Хельсінг (Ван Гельсінг) / Van Helsing (2004) Remux 1080p 3xUkr/Eng | Sub Ukr/Eng [Hurtom]
Encoded date : UTC 2019-11-16 20:23:37
Writing application : v25.0.0 ('Prog Noir') 64-bit
Writing library : libebml v1.3.6 + v1.4.9
Cover : Yes
Attachments : cover.jpg

Video
ID : 1
Format : AVC
Format/Info : Advanced Video Codec
Format profile : [email protected]
Format settings : CABAC / 4 Ref Frames
Format settings, CABAC : Yes
Format settings, Reference fra : 4 frames
Codec ID : V_MPEG4/ISO/AVC
Duration : 2 h 11 min
Bit rate mode : Variable
Bit rate : 26.9 Mb/s
Maximum bit rate : 35.0 Mb/s
Width : 1 920 pixels
Height : 1 080 pixels
Display aspect ratio : 16:9
Frame rate mode : Constant
Frame rate : 23.976 (24000/1001) FPS
Color space : YUV
Chroma subsampling : 4:2:0
Bit depth : 8 bits
Scan type : Progressive
Bits/(Pixel*Frame) : 0.541
Stream size : 24.7 GiB (82%)
Title : Van Helsing (2004) Remux 1080p 3xUkr/Eng | Sub Ukr/Eng [Hurtom]
Language : Ukrainian
Default : Yes
Forced : Yes
Color range : Limited
Color primaries : BT.709
Transfer characteristics : BT.709
Matrix coefficients : BT.709

Audio #1
ID : 2
Format : AC-3
Format/Info : Audio Coding 3
Commercial name : Dolby Digital
Codec ID : A_AC3
Duration : 2 h 11 min
Bit rate mode : Constant
Bit rate : 192 kb/s
Channel(s) : 2 channels
Channel layout : L R
Sampling rate : 48.0 kHz
Frame rate : 31.250 FPS (1536 SPF)
Bit depth : 16 bits
Compression mode : Lossy
Stream size : 181 MiB (1%)
Title : MVO [УКРАЇНА] [NLO.TV] 2.0
Language : Ukrainian
Service kind : Complete Main
Default : Yes
Forced : Yes

Audio #2
ID : 3
Format : AC-3
Format/Info : Audio Coding 3
Commercial name : Dolby Digital
Codec ID : A_AC3
Duration : 2 h 11 min
Bit rate mode : Constant
Bit rate : 192 kb/s
Channel(s) : 2 channels
Channel layout : L R
Sampling rate : 48.0 kHz
Frame rate : 31.250 FPS (1536 SPF)
Bit depth : 16 bits
Compression mode : Lossy
Stream size : 181 MiB (1%)
Title : DVO [НОВИЙ] 2.0
Language : Ukrainian
Service kind : Complete Main
Default : No
Forced : No

Audio #3
ID : 4
Format : AC-3
Format/Info : Audio Coding 3
Commercial name : Dolby Digital
Codec ID : A_AC3
Duration : 2 h 11 min
Bit rate mode : Constant
Bit rate : 192 kb/s
Channel(s) : 2 channels
Channel layout : L R
Sampling rate : 48.0 kHz
Frame rate : 31.250 FPS (1536 SPF)
Bit depth : 16 bits
Compression mode : Lossy
Stream size : 181 MiB (1%)
Title : MVO [ICTV] 2.0
Language : Ukrainian
Service kind : Complete Main
Default : No
Forced : No

Audio #4
ID : 5
Format : XLL
Format/Info : Digital Theater Systems
Commercial name : -HD Master Audio
Codec ID : A_DTS
Duration : 2 h 11 min
Bit rate mode : Variable
Bit rate : 4 565 kb/s
Channel(s) : 6 channels
Channel layout : C L R Ls Rs LFE
Sampling rate : 48.0 kHz
Frame rate : 93.750 FPS (512 SPF)
Bit depth : 24 bits
Compression mode : Lossless
Stream size : 4.20 GiB (14%)
Title : Original -HD MA 5.1
Language : English
Default : No
Forced : No

Audio #5
ID : 6
Format : AC-3
Format/Info : Audio Coding 3
Commercial name : Dolby Digital
Codec ID : A_AC3
Duration : 2 h 11 min
Bit rate mode : Constant
Bit rate : 448 kb/s
Channel(s) : 6 channels
Channel layout : L R C LFE Ls Rs
Sampling rate : 48.0 kHz
Frame rate : 31.250 FPS (1536 SPF)
Bit depth : 16 bits
Compression mode : Lossy
Stream size : 422 MiB (1%)
Title : Original 5.1
Language : English
Service kind : Complete Main
Default : No
Forced : No

Audio #6
ID : 7
Format : AC-3
Format/Info : Audio Coding 3
Commercial name : Dolby Digital
Codec ID : A_AC3
Duration : 2 h 11 min
Bit rate mode : Constant
Bit rate : 192 kb/s
Channel(s) : 2 channels
Channel layout : L R
Sampling rate : 48.0 kHz
Frame rate : 31.250 FPS (1536 SPF)
Bit depth : 16 bits
Compression mode : Lossy
Stream size : 181 MiB (1%)
Title : Original 2.0 | Commentary by Director Stephen Sommers and Editor/Producer Bob Ducsay
Language : English
Service kind : Complete Main
Default : No
Forced : No

Audio #7
ID : 8
Format : AC-3
Format/Info : Audio Coding 3
Commercial name : Dolby Digital
Codec ID : A_AC3
Duration : 2 h 11 min
Bit rate mode : Constant
Bit rate : 192 kb/s
Channel(s) : 2 channels
Channel layout : L R
Sampling rate : 48.0 kHz
Frame rate : 31.250 FPS (1536 SPF)
Bit depth : 16 bits
Compression mode : Lossy
Stream size : 181 MiB (1%)
Title : Original 2.0 | Commentary with Richard Roxburgh, Shuler Hensley and Will Kemp
Language : English
Service kind : Complete Main
Default : No
Forced : No

Text #1
ID : 9
Format : UTF-8
Codec ID : S_TEXT/UTF8
Codec ID/Info : UTF-8 Plain Text
Duration : 1 h 58 min
Bit rate : 60 b/s
Count of elements : 917
Stream size : 52.4 KiB (0%)
Title : Ukr (Full),
Language : Ukrainian
Default : No
Forced : No

Text #2
ID : 10
Format : UTF-8
Codec ID : S_TEXT/UTF8
Codec ID/Info : UTF-8 Plain Text
Duration : 1 h 58 min
Bit rate : 35 b/s
Count of elements : 944
Stream size : 30.7 KiB (0%)
Title : Eng (Full)
Language : English
Default : No
Forced : No

Text #3
ID : 11
Format : PGS
Muxing mode : zlib
Codec ID : S_HDMV/PGS
Codec ID/Info : Picture based subtitle format used on BDs/HD-DVDs
Duration : 1 h 58 min
Bit rate : 24.8 kb/s
Count of elements : 2214
Stream size : 21.0 MiB (0%)
Title : Eng (SDH)
Language : English
Default : Yes
Forced : No

Menu
00:00:00.000 : en:Chapter 01
00:07:49.218 : en:Chapter 02
00:13:42.613 : en:Chapter 03
00:20:14.503 : en:Chapter 04
00:23:12.724 : en:Chapter 05
00:33:58.036 : en:Chapter 06
00:38:22.257 : en:Chapter 07
00:40:34.265 : en:Chapter 08
00:48:41.793 : en:Chapter 09
00:53:18.862 : en:Chapter 10
01:02:07.055 : en:Chapter 11
01:04:31.784 : en:Chapter 12
01:08:42.952 : en:Chapter 13
01:09:54.982 : en:Chapter 14
01:14:17.703 : en:Chapter 15
01:18:55.313 : en:Chapter 16
01:23:57.866 : en:Chapter 17
01:29:19.103 : en:Chapter 18
01:31:11.340 : en:Chapter 19
01:37:30.970 : en:Chapter 20
01:40:34.528 : en:Chapter 21
01:43:46.345 : en:Chapter 22
01:45:56.808 : en:Chapter 23
01:50:21.197 : en:Chapter 24
01:55:16.075 : en:Chapter 25
01:57:08.396 : en:Chapter 26
01:58:42.240 : en:Chapter 27
02:02:01.188 : en:Chapter 28
Скріншоти
Джерело: &
За запис з НЛО дякую п. Bohdan237, п. krigg070
За доріжки від Нового та ICTV дякую п. patriot2305, п. Sando7, п. OlegCena
Окрема подяка п. Arsenfpu
Особиста оцінка: 10 - без зайвих вагань рекомендую всім!


Золотий реліз (завантажене не впливає на рейтинг)
 Трекер:    Зареєстрований   

Завантажити / скачати фільм українською



відео для новачків



 Зареєстрований:   2019-11-16 23:02
 Розмір:   30.25 GB 
 Оцінка фільму:   9.9/10 (Голосів: 8)
   
dimon-2018 
VIP


З нами з: 06.05.18
Востаннє: 12.12.19
Повідомлень: 441

2019-11-25 00:08  
MakRA
український постер

Ваш часовий пояс: GMT + 2 Години

Нова тема   Відповісти