Срібна куля / Silver Bullet (1985) 1080p H.265 Ukr/Eng | Sub Eng

Нові коментарі

Нова тема   Відповісти
Автор Повідомлення
Anonymous 







2019-11-16 14:27  
Срібна куля / Silver Bullet (1985) 1080p H.265 Ukr/Eng | Sub Eng

Срібна куля / Silver Bullet (1985) 1080p H.265 Ukr/Eng | Sub Eng


Жанр: екшн, драма, жахи, містика, трилер
Країна: США
Кінокомпанія: Dino De Laurentiis Company, Famous Films
Режисер: Деніел Еттіес / Daniel Attias
Актори: Ґері Б'юзі / Gary Busey, Еверет Маꥳлл / Everett McGill, Корі Гейм / Corey Haim, Меґан Фолловз / Megan Follows, Робін Ґровс / Robin Groves, Леон Рассом / Leon Russom та інші

Сюжет:
Містичний трилер, знятий по розповіді всесвітньо відомого письменника Стівена Кінґа "Цикл перевертня". Маленьке американське містечко охоплено страхом: ночами при повному місяці хтось по-звірячому вбиває його мешканців. Хтось покритий шерстю, таємничий та невловимий. Добровольці, що відправилися на пошуки вбивці, самі стають його жертвами. Лише тринадцятирічний Марті, прикований до інвалідної коляски, переконаний, що вбивства скоює перевертень, проти якого безсила будь-яка зброя, окрім срібної кулі…

Тривалість: 01:34:58
Якість:

Відео:
кодек: H.265 (HEVC)
розмір кадру: 1920 x 818
бітрейт: 10 911 кб/с
бітова глибина: 10 біт

Увага! Перед завантаженням переконайтесь, що ваш пристрій відтворення (та/або ПЗ) підтримує H.265 (HEVC)

Аудіо # 1:
мова: українська
переклад: багатоголосий закадровий
кодек: AC-3 2.0
бітрейт: 192 кб/с

Аудіо # 2:
мова: англійська
переклад: оригінал
кодек: AC-3 2.0
бітрейт: 448 кб/с

Аудіо # 3:
мова: англійська
переклад: оригінал | коментарі
кодек: AC-3 2.0
бітрейт: 192 кб/с

Субтитри # 1-2: (Full, SDH)
мова: англійська
тип: програмні (м'які)
формат: *.srt


Info
Код:
General
Unique ID                                : 210537477463709445208703633075317297372 (0x9E640B10E128703547408E538CE0D0DC)
Complete name                            : Silver Bullet (1985) 1080p H.265 [UKR_ENG] [Hurtom].
Format                                   :
Format version                           : Version 4
File size                                : 7.79 GiB
Duration                                 : 1 h 34 min
Overall bit rate                         : 11.7 Mb/s
Movie name                               : Срібна куля / Silver Bullet (1985)
Encoded date                             : UTC 2019-11-15 09:28:33
Writing application                      : v20.0.0 ('I Am The Sun') 64-bit
Writing library                          : libebml v1.3.5 + v1.4.8
Cover                                    : Yes
Attachments                              : Cover.jpg

Video
ID                                       : 1
Format                                   : HEVC
Format/Info                              : High Efficiency Video Coding
Format profile                           : Main [email protected]@High
Codec ID                                 : V_MPEGH/ISO/HEVC
Duration                                 : 1 h 34 min
Bit rate                                 : 10.9 Mb/s
Width                                    : 1 920 pixels
Height                                   : 818 pixels
Display aspect ratio                     : 2.35:1
Frame rate mode                          : Constant
Frame rate                               : 23.976 (23976/1000) FPS
Original frame rate                      : 23.976 (24000/1001) FPS
Color space                              : YUV
Chroma subsampling                       : 4:2:0
Bit depth                                : 10 bits
Bits/(Pixel*Frame)                       : 0.290
Stream size                              : 7.24 GiB (93%)
Title                                    : Срібна куля / Silver Bullet (1985)
Writing library                          : x265 3.0_Au+18-768ab38fd5fd:[Windows][MSVC 1920][64 bit] 10bit
Encoding settings                        : cpuid=1111039 / frame-threads=4 / numa-pools=16 / wpp / no-pmode / no-pme / no-psnr / no-ssim / log-level=2 / input-csp=1 / input-res=1920x818 / interlace=0 / total-frames=136632 / level-idc=41 / high-tier=1 / uhd-bd=0 / ref=5 / no-allow-non-conformance / no-repeat-headers / annexb / no-aud / no-hrd / info / hash=0 / no-temporal-layers / open-gop / min-keyint=24 / keyint=240 / gop-lookahead=0 / bframes=12 / b-adapt=2 / b-pyramid / bframe-bias=0 / rc-lookahead=60 / lookahead-slices=1 / scenecut=40 / radl=0 / no-splice / no-intra-refresh / ctu=32 / min-cu-size=8 / rect / amp / max-tu-size=32 / tu-inter-depth=4 / tu-intra-depth=4 / limit-tu=1 / rdoq-level=2 / dynamic-rd=0.00 / no-ssim-rd / signhide / no-tskip / nr-intra=0 / nr-inter=0 / no-constrained-intra / no-strong-intra-smoothing / max-merge=4 / limit-refs=3 / limit-modes / me=3 / subme=7 / merange=57 / temporal-mvp / weightp / weightb / no-analyze-src-pics / deblock=-3:-3 / no-sao / no-sao-non-deblock / rd=6 / no-early-skip / no-rskip / no-fast-intra / no-tskip-fast / no-cu-lossless / no-b-intra / no-splitrd-skip / rdpenalty=0 / psy-rd=2.00 / psy-rdoq=1.00 / no-rd-refine / no-lossless / cbqpoffs=0 / crqpoffs=0 / rc=crf / crf=19.0 / qcomp=0.63 / qpstep=4 / stats-write=0 / stats-read=0 / vbv-maxrate=50000 / vbv-bufsize=50000 / vbv-init=0.9 / crf-max=0.0 / crf-min=0.0 / ipratio=1.40 / pbratio=1.30 / aq-mode=1 / aq-strength=1.00 / no-cutree / zone-count=1 / zones: / start-frame=132976 / end-frame=136631 / qp=35 / no-strict-cbr / qg-size=32 / no-rc-grain / qpmax=69 / qpmin=0 / no-const-vbv / sar=1 / overscan=0 / videoformat=5 / range=0 / colorprim=1 / transfer=1 / colormatrix=1 / chromaloc=0 / display-window=0 / max-cll=0,0 / min-luma=0 / max-luma=1023 / log2-max-poc-lsb=8 / vui-timing-info / vui-hrd-info / slices=1 / no-opt-qp-pps / no-opt-ref-list-length-pps / no-multi-pass-opt-rps / scenecut-bias=0.05 / no-opt-cu-delta-qp / no-aq-motion / no-hdr / no-hdr-opt / no-dhdr10-opt / no-idr-recovery-sei / analysis-reuse-level=5 / scale-factor=0 / refine-intra=0 / refine-inter=0 / refine-mv=0 / refine-ctu-distortion=0 / no-limit-sao / ctu-info=0 / no-lowpass-dct / refine-analysis-type=0 / copy-pic=1 / max-ausize-factor=1.0 / no-dynamic-refine / no-single-sei / hevc-aq / no-svt / qp-adaptation-range=2.00
Language                                 : English
Default                                  : Yes
Forced                                   : No
Color range                              : Limited
Color primaries                          : BT.709
Transfer characteristics                 : BT.709
Matrix coefficients                      : BT.709

Audio #1
ID                                       : 2
Format                                   : AC-3
Format/Info                              : Audio Coding 3
Commercial name                          : Dolby Digital
Codec ID                                 : A_AC3
Duration                                 : 1 h 34 min
Bit rate mode                            : Constant
Bit rate                                 : 192 kb/s
Channel(s)                               : 2 channels
Channel layout                           : L R
Sampling rate                            : 48.0 kHz
Frame rate                               : 31.250 FPS (1536 SPF)
Bit depth                                : 16 bits
Compression mode                         : Lossy
Stream size                              : 130 MiB (2%)
Title                                    : / 2.0 Ch / 192 kbps / БЗ / NLO
Language                                 : Ukrainian
Service kind                             : Complete Main
Default                                  : Yes
Forced                                   : Yes

Audio #2
ID                                       : 3
Format                                   : AC-3
Format/Info                              : Audio Coding 3
Commercial name                          : Dolby Digital
Codec ID                                 : A_AC3
Duration                                 : 1 h 34 min
Bit rate mode                            : Constant
Bit rate                                 : 448 kb/s
Channel(s)                               : 2 channels
Channel layout                           : L R
Sampling rate                            : 48.0 kHz
Frame rate                               : 31.250 FPS (1536 SPF)
Bit depth                                : 16 bits
Compression mode                         : Lossy
Stream size                              : 304 MiB (4%)
Title                                    : / 2.0 Ch / 448 kbps / Original
Language                                 : English
Service kind                             : Complete Main
Default                                  : No
Forced                                   : No

Audio #3
ID                                       : 4
Format                                   : AC-3
Format/Info                              : Audio Coding 3
Commercial name                          : Dolby Digital
Codec ID                                 : A_AC3
Duration                                 : 1 h 34 min
Bit rate mode                            : Constant
Bit rate                                 : 192 kb/s
Channel(s)                               : 2 channels
Channel layout                           : L R
Sampling rate                            : 48.0 kHz
Frame rate                               : 31.250 FPS (1536 SPF)
Bit depth                                : 16 bits
Compression mode                         : Lossy
Stream size                              : 130 MiB (2%)
Title                                    : / 2.0 Ch / 192 kbps / Original / Commentary
Language                                 : English
Service kind                             : Complete Main
Default                                  : No
Forced                                   : No

Text #1
ID                                       : 5
Format                                   : UTF-8
Codec ID                                 : S_TEXT/UTF8
Codec ID/Info                            : UTF-8 Plain Text
Duration                                 : 1 h 30 min
Bit rate                                 : 44 b/s
Count of elements                        : 815
Stream size                              : 29.7 KiB (0%)
Title                                    : Full
Language                                 : English
Default                                  : No
Forced                                   : No

Text #2
ID                                       : 6
Format                                   : UTF-8
Codec ID                                 : S_TEXT/UTF8
Codec ID/Info                            : UTF-8 Plain Text
Duration                                 : 1 h 32 min
Bit rate                                 : 35 b/s
Count of elements                        : 1074
Stream size                              : 24.1 KiB (0%)
Title                                    : SDH
Language                                 : English
Default                                  : No
Forced                                   : No

Menu
00:00:00.000                             : en:Chapter 01
00:04:18.508                             : en:Chapter 02
00:11:29.105                             : en:Chapter 03
00:15:12.536                             : en:Chapter 04
00:18:11.590                             : en:Chapter 05
00:25:30.278                             : en:Chapter 06
00:32:56.015                             : en:Chapter 07
00:37:34.919                             : en:Chapter 08
00:45:16.171                             : en:Chapter 09
00:52:53.295                             : en:Chapter 10
00:57:51.676                             : en:Chapter 11
01:07:50.524                             : en:Chapter 12
01:14:14.950                             : en:Chapter 13
01:20:02.672                             : en:Chapter 14
01:24:06.124                             : en:Chapter 15
01:32:26.123                             : en:Chapter 16
01:34:57.692                             : en:Chapter 17
Світлини




Джерело: &
Особиста оцінка: 0 - не дивився


Срібний реліз (на рейтинг впливає 50% завантаженого)
 Трекер:    Зареєстрований   

Завантажити / скачати фільм українською



відео для новачків



 Зареєстрований:   2019-11-16 14:27
 Розмір:   7.79 GB 
 Оцінка фільму:   10/10 (Голосів: 2)
   
Інші релізи
   Срібна куля / Silver Bullet (1985) Remux 1080p [Collector's Edition] Ukr/Eng | Sub Eng MakRA  1 / 0   23.82 GB   2020-02-20 12:26 
   Срібна куля / Silver Bullet (1985) 720p Ukr/Eng | Sub Eng staf777  2 / 0   5.39 GB   2018-08-09 11:02 
   Срібна куля / Silver Bullet (1985) patriot2305  4 / 0   1.46 GB   2014-08-04 20:12 
Ваш часовий пояс: GMT + 2 Години

Нова тема   Відповісти