Втеча до перемоги / Victory (1981) AVC Ukr/Eng | Sub Eng

Нові коментарі

Нова тема   Відповісти
Автор Повідомлення
Anonymous 







2019-11-16 13:23  
Втеча до перемоги / Victory (1981) AVC Ukr/Eng | Sub Eng

Втеча до перемоги / Victory (1981) AVC Ukr/Eng | Sub Eng


Жанр: військовий, спорт
Країна: США
Кінокомпанія: Lorimar Film Entertainment, Victory Company
Режисер: Джон Х'юстон
Актори: Сільвестр Сталлоне, Майкл Кейн, Пеле, Макс фон Сюдов, Денієл Мессі, Аміда, Боббі Мур, Джордж Мікелл, Тім Піготт-Сміт

Сюжет:
Друга світова війна. В таборі для військовополонених, колишній відомий футболіст Колбі створює команду з ув'язнених і отримує дозвіл на проведення матчу між збірною Німеччини і військовополоненими. До нього в команду напросився офіцер-канадець Хетч - поганий футболіст, він одержимий думкою про втечу. Йому вдається втекти і зв'язатися з бійцями французького опору. І ось настає день матчу ...

Тривалість: 01:56:31
Якість: AVC

Відео:
кодек:
розмір кадру: 1024 x 428
бітрейт: 3 000 кб/с

Аудіо # 1:
мова: українська
переклад: двоголосий закадровий
кодек: AC-3 2.0
бітрейт: 192 кб/с

Аудіо # 2:
мова: англійська
переклад: оригінал
кодек: AC-3 2.0
бітрейт: 192 кб/с

Субтитри # 1: (Full)
мова: англійська
тип: програмні (м'які)
формат: *.srt


Info
Код:
General
Unique ID                                : 57302043283007728277710401686457469598 (0x2B1BF8DBC39270092740DA2FBE56CA9E)
Complete name                            : Victory (1981) AVC [UKR_ENG] [Hurtom].
Format                                   :
Format version                           : Version 4
File size                                : 2.76 GiB
Duration                                 : 1 h 57 min
Overall bit rate                         : 3 360 kb/s
Movie name                               : Втеча до перемоги / Victory (1981)
Encoded date                             : UTC 2019-11-16 09:31:06
Writing application                      : v20.0.0 ('I Am The Sun') 64-bit
Writing library                          : libebml v1.3.5 + v1.4.8
Cover                                    : Yes
Attachments                              : Cover.jpg

Video
ID                                       : 1
Format                                   : AVC
Format/Info                              : Advanced Video Codec
Format profile                           : [email protected]
Format settings                          : CABAC / 12 Ref Frames
Format settings, CABAC                   : Yes
Format settings, Reference frames        : 12 frames
Codec ID                                 : V_MPEG4/ISO/AVC
Duration                                 : 1 h 56 min
Bit rate                                 : 3 000 kb/s
Width                                    : 1 024 pixels
Height                                   : 428 pixels
Display aspect ratio                     : 2.40:1
Frame rate mode                          : Constant
Frame rate                               : 23.976 (24000/1001) FPS
Color space                              : YUV
Chroma subsampling                       : 4:2:0
Bit depth                                : 8 bits
Scan type                                : Progressive
Bits/(Pixel*Frame)                       : 0.285
Stream size                              : 2.44 GiB (89%)
Title                                    : Втеча до перемоги / Victory (1981)
Writing library                          : core 152 r2851 ba24899
Encoding settings                        : cabac=1 / ref=12 / deblock=1:-3:-2 / analyse=0x3:0x113 / me=umh / subme=10 / psy=1 / psy_rd=1.00:0.10 / mixed_ref=1 / me_range=32 / chroma_me=1 / trellis=2 / 8x8dct=1 / cqm=0 / deadzone=21,11 / fast_pskip=0 / chroma_qp_offset=-3 / threads=6 / lookahead_threads=1 / sliced_threads=0 / nr=0 / decimate=0 / interlaced=0 / bluray_compat=0 / constrained_intra=0 / bframes=12 / b_pyramid=2 / b_adapt=2 / b_bias=0 / direct=3 / weightb=1 / open_gop=0 / weightp=2 / keyint=240 / keyint_min=23 / scenecut=40 / intra_refresh=0 / rc=2pass / mbtree=0 / bitrate=3000 / ratetol=1.0 / qcomp=0.60 / qpmin=0 / qpmax=69 / qpstep=4 / cplxblur=20.0 / qblur=0.5 / ip_ratio=1.40 / pb_ratio=1.30 / aq=3:1.00
Language                                 : English
Default                                  : Yes
Forced                                   : No
Color range                              : Limited
Color primaries                          : BT.709
Transfer characteristics                 : BT.709
Matrix coefficients                      : BT.709

Audio #1
ID                                       : 2
Format                                   : AC-3
Format/Info                              : Audio Coding 3
Commercial name                          : Dolby Digital
Codec ID                                 : A_AC3
Duration                                 : 1 h 57 min
Bit rate mode                            : Constant
Bit rate                                 : 192 kb/s
Channel(s)                               : 2 channels
Channel layout                           : L R
Sampling rate                            : 48.0 kHz
Frame rate                               : 31.250 FPS (1536 SPF)
Bit depth                                : 16 bits
Compression mode                         : Lossy
Stream size                              : 161 MiB (6%)
Title                                    : / 2.0 Ch / 192 kbps / ДЗ / ICTV
Language                                 : Ukrainian
Service kind                             : Complete Main
Default                                  : Yes
Forced                                   : Yes

Audio #2
ID                                       : 3
Format                                   : AC-3
Format/Info                              : Audio Coding 3
Commercial name                          : Dolby Digital
Codec ID                                 : A_AC3
Duration                                 : 1 h 56 min
Bit rate mode                            : Constant
Bit rate                                 : 192 kb/s
Channel(s)                               : 2 channels
Channel layout                           : L R
Sampling rate                            : 48.0 kHz
Frame rate                               : 31.250 FPS (1536 SPF)
Bit depth                                : 16 bits
Compression mode                         : Lossy
Stream size                              : 160 MiB (6%)
Title                                    : / 2.0 Ch / 192 kbps / Original
Language                                 : English
Service kind                             : Complete Main
Default                                  : No
Forced                                   : No

Text
ID                                       : 4
Format                                   : UTF-8
Codec ID                                 : S_TEXT/UTF8
Codec ID/Info                            : UTF-8 Plain Text
Duration                                 : 1 h 45 min
Bit rate                                 : 46 b/s
Count of elements                        : 1139
Stream size                              : 35.8 KiB (0%)
Title                                    : Full
Language                                 : English
Default                                  : Yes
Forced                                   : No

Menu
00:00:00.000                             : en:
00:20:11.877                             : en:
00:33:59.370                             : en:
00:43:30.608                             : en:
00:56:19.376                             : en:
01:11:37.626                             : en:
01:24:53.087                             : en:
01:38:19.225                             : en:
Світлини




Джерело: &
Особиста оцінка: 0 - не дивився


Срібний реліз (на рейтинг впливає 50% завантаженого)
 Трекер:    Зареєстрований   

Завантажити / скачати фільм українською



відео для новачків



 Зареєстрований:   2019-11-16 13:23
 Розмір:   2.76 GB 
 Оцінка фільму:   7.8/10 (Голосів: 4)
   
Інші релізи
   Втеча до перемоги / Victory (1981) 720p Ukr/Eng | Sub Eng Deiv  0 / 0   3.74 GB   2017-08-06 23:01 
   Втеча до перемоги / Victory (1981) Ukr/Eng | Sub Eng Romario_O  4 / 1   1.61 GB   2011-05-11 21:48 
Ваш часовий пояс: GMT + 2 Години

Нова тема   Відповісти