Оксамитові ручки / Mani di velluto (1979) Remux 1080p [Remastered] Ukr/Ita | Sub Ita

Нові коментарі

Нова тема   Відповісти
Автор Повідомлення
MakRA 
VIP


З нами з: 11.11.18
Востаннє: 24.09.20
Повідомлень: 1120

2019-11-16 00:04  
Оксамитові ручки / Mani di velluto (1979) Remux 1080p [Remastered] Ukr/Ita | Sub Ita


Альтернативна обкладинка:

Жанр: комедія, романтичний, кримінальний
Країна: Італія



Кінокомпанія: Capital Films
Режисер: Франко Кастелано [Franco Castellano], Джузеппе Моччіа [Giuseppe Moccia]
Актори: Адріано Челентано [Adriano Celentano], Елеонора Джорджі [Eleonora Giorgi], Джон Шарп [John Sharp], Ольга Карлатос [Olga Karlatos], Джино Сантерколе [Gino Santercole], Мемо Дітонго [Memo Dittongo], Анія П'єроні [Ania Pieroni], Джанкарло Тондінеллі [Giancarlo Tondinelli], Піпо Сантонастазо [Pippo Santonastaso], Джанні Дзулло [Gianni Zullo]

Сюжет:
Геніальний інженер Гвідо Квіллер винайшов непробивне скло, яке користується величезним попитом та приносить колосальний прибуток його компанії. Тепер власники ювелірних магазинів можуть спати спокійно, проте не всі поділяють їх радість. Страхові агенти та представники кримінального світу розсердились на Гвідо, і не проти з ним поквитатися. Втім, підступи недругів не найгірше, що чекає на героя попереду.

В один момент розмірене та спокійне життя Гвідо летить шкереберть. Проблеми посипались з усіх боків...


Тривалість: 01:40:46
Якість: Remux 1080p [Remastered]
Відео:
кодек:
розмір кадру: 1920 х 1080
бітрейт: 35 Mб/с

Аудіо # 1:
мова: українська
переклад: двоголосий закадровий
кодек: 2.0
бітрейт: 192 кб/с

Аудіо # 2:
мова: італійська
переклад: оригінал
кодек: LPCM 2.0
бітрейт: 768 кб/с

Аудіо # 3:
мова: італійська
переклад: оригінал
кодек: 2.0
бітрейт: 256 кб/с

Субтитри: (Full)
мова: італійська
тип: програмні (м'які)
формат: *.srt

Збережено оригінальні розділи, як на Blu-ray.
Info
General
Unique ID : 257641154550814588548953952916433999941 (0xC1D3E1A66B1415C990693AA2140F1845)
Complete name : I:\+Фільмографії- Адріано Челентано [Adriano Celentano]\Mani di velluto (1979) Remux 1080p [Remastered] UkrIta Sub Ita [Hurtom].
Format :
Format version : Version 4
File size : 25.4 GiB
Duration : 1 h 40 min
Overall bit rate mode : Variable
Overall bit rate : 36.1 Mb/s
Movie name : Оксамитові ручки / Mani di velluto (1979) Remux 1080p [Remastered] Ukr/Ita | Sub Ita [Hurtom]
Encoded date : UTC 2019-11-15 17:45:51
Writing application : v25.0.0 ('Prog Noir') 64-bit
Writing library : libebml v1.3.6 + v1.4.9
Cover : Yes
Attachments : cover.jpg

Video
ID : 1
Format : AVC
Format/Info : Advanced Video Codec
Format profile : [email protected]
Format settings : CABAC / 3 Ref Frames
Format settings, CABAC : Yes
Format settings, Reference fra : 3 frames
Codec ID : V_MPEG4/ISO/AVC
Duration : 1 h 40 min
Bit rate mode : Variable
Bit rate : 35.0 Mb/s
Maximum bit rate : 37.0 Mb/s
Width : 1 920 pixels
Height : 1 080 pixels
Display aspect ratio : 16:9
Frame rate mode : Constant
Frame rate : 23.976 (24000/1001) FPS
Standard : NTSC
Color space : YUV
Chroma subsampling : 4:2:0
Bit depth : 8 bits
Scan type : Progressive
Bits/(Pixel*Frame) : 0.704
Stream size : 24.6 GiB (97%)
Title : Mani di velluto (1979) Remux 1080p [Remastered] Ukr/Ita | Sub Ita [Hurtom]
Writing library : x264pro - Adobe CS Exporter Plug-in
Encoding settings : cabac=1 / ref=4 / deblock=1:-2:-2 / analyse=0x3:0x113 / me=umh / subme=9 / psy=1 / psy_rd=1.00:0.25 / mixed_ref=1 / me_range=16 / chroma_me=1 / trellis=1 / 8x8dct=1 / cqm=0 / deadzone=6,6 / fast_pskip=1 / chroma_qp_offset=-4 / threads=16 / lookahead_threads=2 / sliced_threads=0 / slices=4 / nr=0 / decimate=0 / interlaced=0 / bluray_compat=1 / constrained_intra=0 / bframes=3 / b_pyramid=1 / b_adapt=2 / b_bias=0 / direct=3 / weightb=1 / open_gop=0 / weightp=1 / keyint=24 / keyint_min=1 / scenecut=40 / intra_refresh=0 / rc_lookahead=24 / rc=abr / mbtree=1 / bitrate=35000 / ratetol=1.0 / qcomp=0.80 / qpmin=0 / qpmax=69 / qpstep=4 / vbv_maxrate=37000 / vbv_bufsize=30000 / nal_hrd=vbr / ip_ratio=1.10 / aq=1:0.05
Language : Ukrainian
Default : Yes
Forced : Yes
Color range : Limited
Color primaries : BT.709
Transfer characteristics : BT.709
Matrix coefficients : BT.709

Audio #1
ID : 2
Format : AC-3
Format/Info : Audio Coding 3
Commercial name : Dolby Digital
Codec ID : A_AC3
Duration : 1 h 40 min
Bit rate mode : Constant
Bit rate : 192 kb/s
Channel(s) : 2 channels
Channel layout : L R
Sampling rate : 48.0 kHz
Frame rate : 31.250 FPS (1536 SPF)
Bit depth : 16 bits
Compression mode : Lossy
Stream size : 138 MiB (1%)
Title : DVO [ENTER] 2.0
Language : Ukrainian
Service kind : Complete Main
Default : Yes
Forced : Yes

Audio #2
ID : 3
Format : PCM
Format settings : Little / Signed
Codec ID : A_PCM/INT/LIT
Duration : 1 h 40 min
Bit rate mode : Constant
Bit rate : 768 kb/s
Channel(s) : 1 channel
Sampling rate : 48.0 kHz
Frame rate : 200.000 FPS (240 SPF)
Bit depth : 16 bits
Stream size : 554 MiB (2%)
Title : Original LPCM 1.0
Language : Italian
Default : No
Forced : No

Audio #3
ID : 4
Format : AC-3
Format/Info : Audio Coding 3
Commercial name : Dolby Digital
Codec ID : A_AC3
Duration : 1 h 40 min
Bit rate mode : Constant
Bit rate : 256 kb/s
Channel(s) : 2 channels
Channel layout : L R
Sampling rate : 48.0 kHz
Frame rate : 31.250 FPS (1536 SPF)
Bit depth : 16 bits
Compression mode : Lossy
Stream size : 184 MiB (1%)
Title : Original 2.0
Language : Italian
Service kind : Complete Main
Default : No
Forced : No

Text
ID : 5
Format : UTF-8
Codec ID : S_TEXT/UTF8
Codec ID/Info : UTF-8 Plain Text
Duration : 1 h 37 min
Bit rate : 58 b/s
Count of elements : 1361
Stream size : 41.9 KiB (0%)
Title : Ita (Full)
Language : Italian
Default : No
Forced : No

Menu
00:00:00.000 : en:(01)00:00:00:000
00:04:46.828 : en:(02)00:04:46:828
00:09:22.144 : en:(03)00:09:22:144
00:15:56.080 : en:(04)00:15:56:080
00:19:14.361 : en:(05)00:19:14:361
00:24:38.226 : en:(06)00:24:38:226
00:34:01.998 : en:(07)00:34:01:998
00:40:22.002 : en:(08)00:40:22:002
00:48:57.434 : en:(09)00:48:57:434
00:56:13.370 : en:(10)00:56:13:370
01:03:24.258 : en:(11)01:03:24:258
01:08:38.989 : en:(12)01:08:38:989
01:14:02.771 : en:(13)01:14:02:771
01:21:45.817 : en:(14)01:21:45:817
01:32:06.020 : en:(15)01:32:06:020
01:39:18.786 : en:(16)01:39:18:786
Скріншоти
Джерело: &
За запис звуку з ТБ подяка п. Krigg070, синхронізація п. drop_plz ???
Особиста оцінка: 9 - давно не бачив настільки якісне кіно Rolleyes (4)


Золотий реліз (завантажене не впливає на рейтинг)
 Трекер:    Зареєстрований   

Завантажити / скачати фільм українською



відео для новачків



 Зареєстрований:   2019-11-16 00:04
 Розмір:   25.43 GB 
 Оцінка фільму:   9.9/10 (Голосів: 7)
   
Інші релізи
igor911 
Модератор відео


З нами з: 18.01.08
Востаннє: 24.09.20
Повідомлень: 15004

2019-11-16 00:41  
MakRA написано:
Remastered

Не завжди є час перевіряти, чи дійсно це ремастеринг. А тут глянув - ніякої інфи про ремастеринг чи якесь перевидання не бачу, є одне-єдине ось це німецьке видання блурея. Звідки дані про ремастеринг?

MakRA 
VIP


З нами з: 11.11.18
Востаннє: 24.09.20
Повідомлень: 1120

2019-11-16 01:00  
igor911
Перевірю.

Додано через 6 хвилин 39 секунд:

igor911
https://www.schnittberichte.com/news.php?ID=12677

Ваш часовий пояс: GMT + 2 Години

Нова тема   Відповісти