Сестричка Бетті / Nurse Betty (2000) AVC Ukr/Eng | Sub Ukr/Eng

Нові коментарі

Нова тема   Відповісти
Автор Повідомлення
Arsenfpu 
Відео Гуртом - фільмокрай
Відео Гуртом - фільмокрай


З нами з: 30.04.09
Востаннє: 10.12.19
Повідомлень: 6293

2019-11-15 21:05  
Сестричка Бетті / Nurse Betty (2000) AVC Ukr/Eng | Sub Ukr/Eng

Сестричка Бетті / Nurse Betty (2000) AVC Ukr/Eng | Sub Ukr/Eng


Жанр: комедія, кримінальний, романтичний, трилер
Країна: США, Німеччина



Кінокомпанія: Gramercy Pictures (I), Pacifica Film, Propaganda Films
Режисер: Ніл ЛаБут
Актори: Морган Фрімен, Рене Зеллвегер, Кріс Рок, Грег Кіннер, Аарон Екхарт, Тіа Тексада, Кріспін Гловер, Прюітт Тейлор Вінс, Еллісон Дженні, Кетлін Вілхойт

Сюжет:
Брати чуже не добре. Але нечистий на руку продавець автомобілів Дел Сайзмор забув цю просту істину. За що і був покараний. Два кілера: Чарлі і Веслі допомогли йому переселитися на той світ. Мимовільним свідком цієї події стала дружина Дела - Бетті, в результаті чого її трохи заклинило, і вона вирушила шукати щастя в обіймах доктора Ревелла, персонажа популярного телесеріалу. А по п'ятах за нею йде парочка вбивць, у яких залишилося до сім'ї Сайзмор незавершена справа...


Тривалість: 01:50:53
Якість:
Відео:
кодек:
розмір кадру: 1 024 х 432
бітрейт: 2 399 кб/с

Аудіо # 1:
мова: українська
переклад: двоголосий закадровий (з 5.1)
кодек: 2.0
бітрейт: 192 кб/с

Аудіо # 2:
мова: англійська
переклад: оригінал
кодек: 2.0
бітрейт: 192 кб/с

Субтитри:
мова: українська
тип: програмні (м'які)
формат: *.srt

Субтитри:
мова: англійська
тип: програмні (м'які)
формат: *.srt
Про файл
General
Unique ID : 35471744087971489947605579488982407829 (0x1AAF9C026A847EBB990FCA452D9B1A95)
Complete name : C:\Nurse Betty (2000) [Ukr,Eng] AVC [Hurtom].
Format :
Format version : Version 4 / Version 2
File size : 2.16 GiB
Duration : 1 h 50 min
Overall bit rate : 2 785 kb/s
Movie name : Сестричка Бетті / Nurse Betty (2000)
Encoded date : UTC 2019-11-15 18:32:19
Writing application : v21.0.0 ('Tardigrades Will Inherit The Earth') 32-bit
Writing library : libebml v1.3.5 + v1.4.8
Cover : Yes
Attachments : cover.jpg

Video
ID : 1
Format : AVC
Format/Info : Advanced Video Codec
Format profile : [email protected]
Format settings, CABAC : Yes
Format settings, ReFrames : 4 frames
Codec ID : V_MPEG4/ISO/AVC
Duration : 1 h 50 min
Bit rate : 2 399 kb/s
Width : 1 024 pixels
Height : 432 pixels
Display aspect ratio : 2.40:1
Frame rate mode : Constant
Frame rate : 23.976 (24000/1001) FPS
Color space : YUV
Chroma subsampling : 4:2:0
Bit depth : 8 bits
Scan type : Progressive
Bits/(Pixel*Frame) : 0.226
Stream size : 1.86 GiB (86%)
Writing library : core 157 r2935 545de2f
Encoding settings : cabac=1 / ref=3 / deblock=1:-1:-1 / analyse=0x3:0x113 / me=hex / subme=7 / psy=1 / psy_rd=1.00:0.15 / mixed_ref=1 / me_range=16 / chroma_me=1 / trellis=1 / 8x8dct=1 / cqm=0 / deadzone=21,11 / fast_pskip=1 / chroma_qp_offset=-3 / threads=12 / lookahead_threads=2 / sliced_threads=0 / nr=0 / decimate=1 / interlaced=0 / bluray_compat=0 / constrained_intra=0 / bframes=3 / b_pyramid=2 / b_adapt=1 / b_bias=0 / direct=1 / weightb=1 / open_gop=0 / weightp=2 / keyint=240 / keyint_min=23 / scenecut=40 / intra_refresh=0 / rc_lookahead=40 / rc=2pass / mbtree=1 / bitrate=2399 / ratetol=1.0 / qcomp=0.60 / qpmin=0 / qpmax=69 / qpstep=4 / cplxblur=20.0 / qblur=0.5 / ip_ratio=1.40 / aq=1:1.00
Default : Yes
Forced : No

Audio #1
ID : 2
Format : AC-3
Format/Info : Audio Coding 3
Mode extension : CM (complete main)
Format settings, Endianness : Big
Codec ID : A_AC3
Duration : 1 h 50 min
Bit rate mode : Constant
Bit rate : 192 kb/s
Channel(s) : 2 channels
Channel positions : Front: L R
Sampling rate : 48.0 kHz
Frame rate : 31.250 FPS (1536 spf)
Compression mode : Lossy
Stream size : 152 MiB (7%)
Title : Новий
Language : Ukrainian
Default : Yes
Forced : Yes

Audio #2
ID : 3
Format : AC-3
Format/Info : Audio Coding 3
Mode extension : CM (complete main)
Format settings, Endianness : Big
Codec ID : A_AC3
Duration : 1 h 50 min
Bit rate mode : Constant
Bit rate : 192 kb/s
Channel(s) : 2 channels
Channel positions : Front: L R
Sampling rate : 48.0 kHz
Frame rate : 31.250 FPS (1536 spf)
Compression mode : Lossy
Stream size : 152 MiB (7%)
Language : English
Default : No
Forced : No

Text #1
ID : 4
Format : UTF-8
Codec ID : S_TEXT/UTF8
Codec ID/Info : UTF-8 Plain Text
Duration : 1 h 46 min
Bit rate : 110 b/s
Count of elements : 1380
Stream size : 86.5 KiB (0%)
Language : Ukrainian
Default : Yes
Forced : No

Text #2
ID : 5
Format : UTF-8
Codec ID : S_TEXT/UTF8
Codec ID/Info : UTF-8 Plain Text
Duration : 1 h 45 min
Bit rate : 78 b/s
Count of elements : 1624
Stream size : 60.6 KiB (0%)
Language : English
Default : No
Forced : No
Скріншоти














Джерело:
За матеріал для релізу дякую п. urij546724, dvorsky, drop_plz
Особиста оцінка: не дивився


Срібний реліз (на рейтинг впливає 50% завантаженого)
 Трекер:    Зареєстрований   

Завантажити / скачати фільм українською



відео для новачків



 Зареєстрований:   2019-11-15 21:05
 Розмір:   2.16 GB 
 Оцінка фільму:   6.5/10 (Голосів: 6)
   
Інші релізи
reiser44 
Свій


З нами з: 12.11.14
Востаннє: 06.12.19
Повідомлень: 117

2019-11-18 18:17  
Цитата:
Жанр: комедія, кримінальний, романтичний, трилер

Повна маячня. Навіть після перегляду, враження не змінилось.

Ваш часовий пояс: GMT + 2 Години

Нова тема   Відповісти