Блеф: оповідка про шахрайство і дурисвітів / Bluff storia di truffe e di imbroglioni (1976) 1080p [Remastered] 2xUkr/Ita | Sub Eng

Нові коментарі

Нова тема   Відповісти
Автор Повідомлення
MakRA 
VIP


З нами з: 11.11.18
Востаннє: 26.09.20
Повідомлень: 1120

2019-11-15 20:21  
Блеф: оповідка про шахрайство і дурисвітів / Bluff storia di truffe e di imbroglioni (1976) 1080p [Remastered] 2xUkr/Ita | Sub Eng

Блеф: оповідка про шахрайство і дурисвітів / Bluff storia di truffe e di imbroglioni (1976) 1080p [Remastered] 2xUkr/Ita | Sub Eng

Український постер:

Альтернативний постер:

Жанр: комедія, кримінальний
Країна: Італія



Кінокомпанія: Capital Films
Режисер: Серджіо Корбуччі [Sergio Corbucci]
Актори: Адріано Челентано [Adriano Celentano], Ентоні Куїнн [Anthony Quinn], Корінн Клері [Corinne Clery], Капучин [Capucine], Аттіліо Доттесіо [Attilio Dottesio], Ренцо Мариньяно [Renzo Marignano], Фортунатто Арена [Fortunato Arena]

Сюжет:
Блискуча, іскрометна, легка та захоплююча комедія про карколомні пригоди аферистів, які обдурюючи простфіль, постійно намагаються обдурити і один одного, а одного разу об'єднуються заради грандіозної афери...
Події розгортаються в 1930-і роки. Два шахрая вирішили втекти з в'язниці опиняються в одному і тому ж туалеті одного і того ж тюремного ешелону. Але що б втекти одному з них, Феліксу, довелося в обдурити іншого. Після втечі, він потрапляє до рук гангстерів, які чекали на в'язня, якого обдурив Фелікс в потягу. Феліксу зробили «пропозицію, від якої не можна відмовитися» і він мусить повернутись у в'язницю, аби звільнити шулера N1 в Європі, легендарного Філіпа Бенга на прізвисько «Маестро»…


Тривалість: 01:49:02
Якість: 1080p [Remastered] [GER Transfer]
Відео:
кодек:
розмір кадру: 1920 х 1040
бітрейт: 16,7 Mб/с

Аудіо # 1:
мова: українська
переклад: двоголосий закадровий
кодек: 2.0
бітрейт: 192 кб/с

Аудіо # 2:
мова: українська
переклад: багатоголосий закадровий
кодек: 2.0
бітрейт: 192 кб/с

Аудіо # 3:
мова: італійська
переклад: оригінал
кодек: 2.0
бітрейт: 1510 кб/с

Аудіо # 4:
мова: італійська
переклад: оригінал
кодек: 2.0
бітрейт: 319 кб/с

Аудіо # 5:
мова: італійська
переклад: оригінал
кодек: 2.0
бітрейт: 192 кб/с

Субтитри: (Full)
мова: англійська
тип: програмні (м'які)
формат: *.srt

Збережено оригінальні розділи, як на Blu-ray.
Info
General
Unique ID : 79751120199199297155336833266574701679 (0x3BFF81CDF6B3D02785EA8F8C62E4346F)
Complete name : I:\+Фільмографії- Адріано Челентано [Adriano Celentano]\Bluff storia di truffe e di imbroglioni (1976) 1080p [Remastered] 2xUkrIta Sub Eng [Hurtom].
Format :
Format version : Version 4
File size : 14.5 GiB
Duration : 1 h 49 min
Overall bit rate mode : Variable
Overall bit rate : 19.1 Mb/s
Movie name : Блеф: оповідка про шахрайство і дурисвітів / Bluff storia di truffe e di imbroglioni (1976) 1080p [Remastered] 2xUkr/Ita | Sub Eng [Hurtom]
Encoded date : UTC 2019-11-15 17:05:05
Writing application : v25.0.0 ('Prog Noir') 64-bit
Writing library : libebml v1.3.6 + v1.4.9
Cover : Yes
Attachments : cover.jpg

Video
ID : 1
Format : AVC
Format/Info : Advanced Video Codec
Format profile : [email protected]
Format settings : CABAC / 4 Ref Frames
Format settings, CABAC : Yes
Format settings, Reference fra : 4 frames
Codec ID : V_MPEG4/ISO/AVC
Duration : 1 h 49 min
Bit rate : 16.7 Mb/s
Width : 1 920 pixels
Height : 1 040 pixels
Display aspect ratio : 1.85:1
Frame rate mode : Constant
Frame rate : 23.976 (24000/1001) FPS
Color space : YUV
Chroma subsampling : 4:2:0
Bit depth : 8 bits
Scan type : Progressive
Bits/(Pixel*Frame) : 0.349
Stream size : 12.7 GiB (87%)
Title : Bluff storia di truffe e di imbroglioni (1976) 1080p [Remastered] 2xUkr/Ita | Sub Eng [Hurtom]
Writing library : core 157 r2935 545de2f
Encoding settings : cabac=1 / ref=4 / deblock=1:-2:-2 / analyse=0x3:0x113 / me=umh / subme=11 / psy=1 / psy_rd=1.00:0.15 / mixed_ref=1 / me_range=32 / chroma_me=1 / trellis=2 / 8x8dct=1 / cqm=0 / deadzone=21,11 / fast_pskip=0 / chroma_qp_offset=-3 / threads=6 / lookahead_threads=1 / sliced_threads=0 / nr=0 / decimate=1 / interlaced=0 / bluray_compat=0 / constrained_intra=0 / bframes=6 / b_pyramid=2 / b_adapt=2 / b_bias=0 / direct=1 / weightb=1 / open_gop=0 / weightp=2 / keyint=230 / keyint_min=23 / scenecut=40 / intra_refresh=0 / rc_lookahead=40 / rc=crf / mbtree=1 / crf=18.0 / qcomp=0.60 / qpmin=0 / qpmax=69 / qpstep=4 / vbv_maxrate=50000 / vbv_bufsize=62500 / crf_max=0.0 / nal_hrd=none / filler=0 / ip_ratio=1.40 / aq=1:1.00
Language : Ukrainian
Default : Yes
Forced : Yes

Audio #1
ID : 2
Format : AC-3
Format/Info : Audio Coding 3
Commercial name : Dolby Digital
Codec ID : A_AC3
Duration : 1 h 48 min
Bit rate mode : Constant
Bit rate : 192 kb/s
Channel(s) : 2 channels
Channel layout : L R
Sampling rate : 48.0 kHz
Frame rate : 31.250 FPS (1536 SPF)
Bit depth : 16 bits
Compression mode : Lossy
Stream size : 150 MiB (1%)
Title : DVO [СТБ] 2.0
Language : Ukrainian
Service kind : Complete Main
Default : Yes
Forced : Yes

Audio #2
ID : 3
Format : AC-3
Format/Info : Audio Coding 3
Commercial name : Dolby Digital
Codec ID : A_AC3
Duration : 1 h 48 min
Bit rate mode : Constant
Bit rate : 192 kb/s
Channel(s) : 2 channels
Channel layout : L R
Sampling rate : 48.0 kHz
Frame rate : 31.250 FPS (1536 SPF)
Bit depth : 16 bits
Compression mode : Lossy
Stream size : 150 MiB (1%)
Title : MVO [НТН] 2.0
Language : Ukrainian
Service kind : Complete Main
Default : No
Forced : No

Audio #3
ID : 4
Format :
Format/Info : Digital Theater Systems
Codec ID : A_DTS
Duration : 1 h 49 min
Bit rate mode : Constant
Bit rate : 1 510 kb/s
Channel(s) : 2 channels
Channel layout : L R
Sampling rate : 48.0 kHz
Frame rate : 93.750 FPS (512 SPF)
Bit depth : 16 bits
Compression mode : Lossy
Stream size : 1.15 GiB (8%)
Title : Original 2.0
Language : Italian
Default : No
Forced : No

Audio #4
ID : 5
Format :
Format/Info : Free Lossless Audio Codec
Codec ID : A_FLAC
Duration : 1 h 49 min
Bit rate mode : Variable
Bit rate : 319 kb/s
Channel(s) : 2 channels
Channel layout : L R
Sampling rate : 48.0 kHz
Frame rate : 11.719 FPS (4096 SPF)
Bit depth : 16 bits
Compression mode : Lossless
Stream size : 248 MiB (2%)
Title : Original 2.0
Writing library : libFLAC 1.2.1 (UTC 2007-09-17)
Language : Italian
Default : No
Forced : No

Audio #5
ID : 6
Format : AC-3
Format/Info : Audio Coding 3
Commercial name : Dolby Digital
Codec ID : A_AC3
Duration : 1 h 49 min
Bit rate mode : Constant
Bit rate : 192 kb/s
Channel(s) : 2 channels
Channel layout : L R
Sampling rate : 48.0 kHz
Frame rate : 31.250 FPS (1536 SPF)
Bit depth : 16 bits
Compression mode : Lossy
Stream size : 150 MiB (1%)
Title : Original 2.0
Language : Italian
Service kind : Complete Main
Default : No
Forced : No

Text
ID : 7
Format : UTF-8
Codec ID : S_TEXT/UTF8
Codec ID/Info : UTF-8 Plain Text
Duration : 1 h 45 min
Bit rate : 55 b/s
Count of elements : 1010
Stream size : 43.2 KiB (0%)
Title : Eng (Full) SRT
Language : English
Default : No
Forced : No

Menu
00:00:00.000 : :00:00:00.000
00:06:53.413 : :00:06:53.413
00:17:12.156 : :00:17:12.156
00:22:40.985 : :00:22:40.985
00:29:59.256 : :00:29:59.256
00:41:29.487 : :00:41:29.487
00:48:37.081 : :00:48:37.081
00:52:37.488 : :00:52:37.488
00:57:28.570 : :00:57:28.570
01:04:52.555 : :01:04:52.555
01:12:53.202 : :01:12:53.202
01:18:05.222 : :01:18:05.222
01:22:08.549 : :01:22:08.549
01:27:53.643 : :01:27:53.643
01:36:47.969 : :01:36:47.969
01:47:39.495 : :01:47:39.495
Скріншоти
Джерело: &
За запис з каналу НТН подяка п. Петров Микола, також дякую п. Skiff та п. підпільник за попередні релізи даного фільму
Особиста оцінка: 10 - без зайвих вагань рекомендую всім!


Срібний реліз (на рейтинг впливає 50% завантаженого)
 Трекер:    Зареєстрований   

Завантажити / скачати фільм українською



відео для новачків



 Зареєстрований:   2019-11-15 20:21
 Розмір:   14.55 GB 
 Оцінка фільму:   9.8/10 (Голосів: 5)
   
Ваш часовий пояс: GMT + 2 Години

Нова тема   Відповісти