З міркувань совісті / Hacksaw Ridge (2016) UHD Remux 4K 2160p 2xUkr/Eng | Sub Eng

Нові коментарі

Нова тема   Відповісти
Автор Повідомлення
Anonymous 







2019-11-14 14:47  
З міркувань совісті / Hacksaw Ridge (2016) UHD Remux 4K 2160p 2xUkr/Eng | Sub Eng

З міркувань совісті / Hacksaw Ridge (2016) UHD Remux 4K 2160p 2xUkr/Eng | Sub Eng


Жанр: драма, військовий
Країна: США, Австралія



Кінокомпанія: Cross Creek Pictures, Demarest Media, IM Global
Режисер: Мел Ґібсон / Mel Gibson
Актори: Ендрю Ґарфілд / Andrew Garfield, Сем Вортінґтон / Sam Worthington, Тереза Палмер / Teresa Palmer, Люк Брейсі / Luke Bracey, Вінс Вон / Vince Vaughn, Г’юґо Вівінґ / Hugo Weaving, Рейчел Ґріфітс / Rachel Griffiths та інші

Сюжет:
Медик американської армії часів Другої світової війни Дезмонд Дос, що служив під час Битви за Окінаву, відмовляється вбивати людей і стає першим в історії Америки, хто отримав Медаль за відвагу, не здійснивши жодного пострілу.


Тривалість: 02:19:19
Якість: UHD Remux 4K 2160p
Відео:
кодек: H.265 (HEVC)
розмір кадру: 3840x2160
бітрейт: 66,6 Мб/с
бітова глибина: 10 біт
кольоровий простір: BT.2020 (HDR)

Аудіо # 1:
мова: українська
переклад: багатоголосий закадровий | Студія Омікрон
кодек: -HD MA 7.1
бітрейт: 5208 кб/с

Перекладено та озвучено студією Омікрон на замовлення HURTOM.COM


Аудіо # 2:
мова: українська
переклад: багатоголосий закадровий | Студія Омікрон
кодек: 5.1
бітрейт: 448 кб/с
Про озвучення

Українське озвучення створено в рамках проекту "Хочеш кіно українською? Замовляй!"



Дякуємо користувачам, що фінансово допомогли проекту:
5E_koleco, AleRD, alex2n, and2003, Andrii Lavrinenko, andriy_m1, Aussie, azteckh, bezmezhna, biba, Bogdan, bogdanmtv, botticelliesque, brebis, brsmo, btcorp, bvv_74, casper101, cl124, ClounUA, hon94ok, davose, DjRomcio, dmaxim93, forest17, geo1407, Golota, Gxost, hedgee, Hliko1, hulk, ibabichuk, ihor72, IntGenius, italian, ivan vyrvyvuho, Ivan_S, jandrus, jeepR, joanna13, k0Lh0zDn1k, Pazich, kalobok, kapkan13, kinaxem, Knight219, Kotaka_the_Great, lastdream, lebovskiy, Lenka007, Lom, makluha maklay, MaksymRusyn, max3x, merdok, Mikhal, Mikola_sat, mnd2, NemoInFire, nemos, Nykyphor, Nyurko, OlenNa, olga_yu, Olkos, orush, own.store.hata, Pazich, raz1ro, Red Fox, Respect14, romanb, Roni, rovel, Roy018, rvs2006, Sehrg-Gut, Sensetivity, Shcherbanivan, sofiko, spirit00011, Stalker-Neo, stanum12345, SurFutur, Tania-Iris , tarpyt, timoha, TomLokki, Tykhon, Udik, ups2003, vanami, vern88, vhorungy, WestSideBoy, wolesj, xrustia_08, xxfrunzikxx, yaris01, yookiecookie, zaika, zbtornado, zendash, zovmoto, Григорій Лахно, ігорд, Когут Олег, сонечко-місяць, шарко

Також дякуємо користувачам, що надали фінансову допомогу, але побажали бути анонімними.

Детальніше про проект.
Аудіо # 3:
мова: українська
переклад: багатоголосий закадровий
кодек: 2.0
бітрейт: 192 кб/с

Аудіо # 4:
мова: англійська
переклад: оригінал
кодек: TrueHD + Atmos 7.1
бітрейт: 4304 кб/с

Аудіо # 5:
мова: англійська
переклад: оригінал
кодек: 5.1
бітрейт: 640 кб/с

Субтитри # 1-3 : (Full, SDH, SDH-Colored)
мова: англійська
тип: програмні (м'які)
формат: *.srt
Info
Код:
General
Complete name                            : Hacksaw Ridge (2016) UHD Remux 4K 2160p HDR H.265 (HEVC) [2xUKR_ENG] [ViDeO_Hurtom].
Format                                   :
Format version                           : Version 4
File size                                : 75.4 GiB
Duration                                 : 2 h 19 min
Overall bit rate mode                    : Variable
Overall bit rate                         : 77.4 Mb/s
Encoded date                             : UTC 2019-11-14 11:01:51
Writing application                      : v30.1.0 ('Forever And More') 64-bit
Writing library                          : libebml v1.3.6 + v1.4.9
Cover                                    : Yes
Attachments                              : cover.jpg

Video
ID                                       : 1
Format                                   : HEVC
Format/Info                              : High Efficiency Video Coding
Commercial name                          : HDR10
Format profile                           : Main [email protected]@High
Codec ID                                 : V_MPEGH/ISO/HEVC
Duration                                 : 2 h 19 min
Bit rate                                 : 66.6 Mb/s
Width                                    : 3 840 pixels
Height                                   : 2 160 pixels
Display aspect ratio                     : 16:9
Frame rate mode                          : Constant
Frame rate                               : 23.976 (24000/1001) FPS
Color space                              : YUV
Chroma subsampling                       : 4:2:0 (Type 2)
Bit depth                                : 10 bits
Bits/(Pixel*Frame)                       : 0.335
Stream size                              : 64.8 GiB (86%)
Title                                    : Remux.2160p.HDR.TeamHD by Silverok
Writing library                          : ATEME Titan KFE 3.7.3 (4.7.3.1003)
Default                                  : Yes
Forced                                   : No
Color range                              : Limited
Color primaries                          : BT.2020
Transfer characteristics                 : PQ
Matrix coefficients                      : BT.2020 non-constant
Mastering display color primaries        : Display P3
Mastering display luminance              : min: 0.0000 cd/m2, max: 1000 cd/m2
Maximum Content Light Level              : 1000 cd/m2
Maximum Frame-Average Light Level        : 321 cd/m2

Audio #1
ID                                       : 2
Format                                   : XLL
Format/Info                              : Digital Theater Systems
Commercial name                          : -HD Master Audio
Codec ID                                 : A_DTS
Duration                                 : 2 h 19 min
Bit rate mode                            : Variable
Bit rate                                 : 5 208 kb/s
Channel(s)                               : 8 channels
Channel layout                           : C L R LFE Lb Rb Lss Rss
Sampling rate                            : 48.0 kHz
Frame rate                               : 93.750 FPS (512 SPF)
Bit depth                                : 24 bits
Compression mode                         : Lossless
Stream size                              : 5.07 GiB (7%)
Title                                    : HD MA, 8 ch, 5208 Кбт/с | Студія Омікрон
Language                                 : Ukrainian
Default                                  : Yes
Forced                                   : No

Audio #2
ID                                       : 3
Format                                   : AC-3
Format/Info                              : Audio Coding 3
Commercial name                          : Dolby Digital
Codec ID                                 : A_AC3
Duration                                 : 2 h 19 min
Bit rate mode                            : Constant
Bit rate                                 : 448 kb/s
Channel(s)                               : 6 channels
Channel layout                           : L R C LFE Ls Rs
Sampling rate                            : 48.0 kHz
Frame rate                               : 31.250 FPS (1536 SPF)
Bit depth                                : 16 bits
Compression mode                         : Lossy
Stream size                              : 446 MiB (1%)
Title                                    : , 6 ch, 448 Кбт/с | Студія Омікрон
Language                                 : Ukrainian
Service kind                             : Complete Main
Default                                  : No
Forced                                   : No

Audio #3
ID                                       : 4
Format                                   : AC-3
Format/Info                              : Audio Coding 3
Commercial name                          : Dolby Digital
Codec ID                                 : A_AC3
Duration                                 : 2 h 19 min
Bit rate mode                            : Constant
Bit rate                                 : 192 kb/s
Channel(s)                               : 2 channels
Channel layout                           : L R
Sampling rate                            : 48.0 kHz
Frame rate                               : 31.250 FPS (1536 SPF)
Bit depth                                : 16 bits
Compression mode                         : Lossy
Stream size                              : 191 MiB (0%)
Title                                    : , 2 ch, 192 Кбт/с | Новий канал
Language                                 : Ukrainian
Service kind                             : Complete Main
Default                                  : No
Forced                                   : No

Audio #4
ID                                       : 5
Format                                   : MLP FBA 16-ch
Format/Info                              : Meridian Lossless Packing FBA with 16-channel presentation
Commercial name                          : Dolby TrueHD with Dolby Atmos
Codec ID                                 : A_TRUEHD
Duration                                 : 2 h 19 min
Bit rate mode                            : Variable
Bit rate                                 : 4 304 kb/s
Maximum bit rate                         : 8 544 kb/s
Channel(s)                               : 8 channels
Channel layout                           : L R C LFE Ls Rs Lb Rb
Sampling rate                            : 48.0 kHz
Frame rate                               : 1 200.000 FPS (40 SPF)
Compression mode                         : Lossless
Stream size                              : 4.19 GiB (6%)
Title                                    : TrueHD, 8 ch, 4304 Кбт/с
Language                                 : English
Default                                  : No
Forced                                   : No
Number of dynamic objects                : 15
Bed channel count                        : 1 channel
Bed channel configuration                : LFE

Audio #5
ID                                       : 6
Format                                   : AC-3
Format/Info                              : Audio Coding 3
Commercial name                          : Dolby Digital
Codec ID                                 : A_AC3
Duration                                 : 2 h 19 min
Bit rate mode                            : Constant
Bit rate                                 : 640 kb/s
Channel(s)                               : 6 channels
Channel layout                           : L R C LFE Ls Rs
Sampling rate                            : 48.0 kHz
Frame rate                               : 31.250 FPS (1536 SPF)
Bit depth                                : 16 bits
Compression mode                         : Lossy
Stream size                              : 638 MiB (1%)
Title                                    : , 6 ch, 640 Кбт/с
Language                                 : English
Service kind                             : Complete Main
Default                                  : No
Forced                                   : No

Text #1
ID                                       : 7
Format                                   : UTF-8
Codec ID                                 : S_TEXT/UTF8
Codec ID/Info                            : UTF-8 Plain Text
Duration                                 : 2 h 8 min
Bit rate                                 : 48 b/s
Count of elements                        : 1342
Stream size                              : 46.1 KiB (0%)
Title                                    : Full
Language                                 : English
Default                                  : No
Forced                                   : No

Text #2
ID                                       : 8
Format                                   : UTF-8
Codec ID                                 : S_TEXT/UTF8
Codec ID/Info                            : UTF-8 Plain Text
Duration                                 : 2 h 9 min
Bit rate                                 : 55 b/s
Count of elements                        : 1655
Stream size                              : 53.2 KiB (0%)
Title                                    : SDH
Language                                 : English
Default                                  : No
Forced                                   : No

Text #3
ID                                       : 9
Format                                   : UTF-8
Codec ID                                 : S_TEXT/UTF8
Codec ID/Info                            : UTF-8 Plain Text
Duration                                 : 2 h 9 min
Bit rate                                 : 71 b/s
Count of elements                        : 1655
Stream size                              : 68.1 KiB (0%)
Title                                    : SDH Colored
Language                                 : English
Default                                  : No
Forced                                   : No

Menu
00:00:00.000                             : en:Глава 01
00:09:18.767                             : en:Глава 02
00:18:41.996                             : en:Глава 03
00:26:34.510                             : en:Глава 04
00:33:00.562                             : en:Глава 05
00:40:04.152                             : en:Глава 06
00:50:07.213                             : en:Глава 07
00:57:01.543                             : en:Глава 08
01:04:21.649                             : en:Глава 09
01:17:50.207                             : en:Глава 10
01:23:58.700                             : en:Глава 11
01:31:21.726                             : en:Глава 12
01:39:02.812                             : en:Глава 13
01:46:07.570                             : en:Глава 14
01:59:48.306                             : en:Глава 15
02:07:13.292                             : en:Глава 16
Скріншоти




Подяка пану Bohdan237 за запис звуку до Аудіо #2 та пану omm за синхронізацію
Джерело:
Особиста оцінка: 8 - мені сподобалося
Увага! Перед завантаженням переконайтесь, що ваш пристрій відтворення (та/або ПЗ) підтримує H.265 (HEVC)


Авторський реліз (завантажувати можна без реєстрації)
 Трекер:    Зареєстрований   

Завантажити / скачати фільм українською



відео для новачків



 Зареєстрований:   2019-11-14 15:03
 Розмір:   75.35 GB 
 Оцінка фільму:   9.8/10 (Голосів: 18)
   
bortnikvadim 
Новенький


З нами з: 18.12.13
Востаннє: 14.09.20
Повідомлень: 4

2019-11-15 01:15  
Класний фільм раджу до перегляду!!! 10/10
P1ua 
Новенький


З нами з: 05.08.13
Востаннє: 23.09.20
Повідомлень: 7

2019-11-18 17:38  
Кілька років тому дивися, шикарний фільм!
Anonymous 







2019-11-18 22:09  
bortnikvadim написано:
Класний фільм раджу до перегляду!!! 10/10

P1ua написано:
Кілька років тому дивися, шикарний фільм!


Згоден файне кіно.

Українець_з_Умані 
Частий відвідувач


З нами з: 19.09.10
Востаннє: 14.09.20
Повідомлень: 40

2019-11-20 19:02  
відмінне кіно. якісне, провокативне, зворушливе, і доволі реалістичне...Рекомендую в 4к...
[email protected] 
Відео Гуртом - підтримка та поширення
Відео Гуртом - підтримка та поширення


З нами з: 16.06.12
Востаннє: 20.09.20
Повідомлень: 1427

2020-06-06 15:24  
Піддайте швидкості та станьте на роздачу, дякую Happy
Ваш часовий пояс: GMT + 2 Години

Нова тема   Відповісти