Хранителі [Максимальна версія] / Watchmen [Ultimate cut] (2009) Remux 1080p Ukr/Eng | Sub Ukr/Eng

Нові коментарі

Нова тема   Відповісти
Автор Повідомлення
Anonymous 







2019-11-14 13:46  
Хранителі [Максимальна версія] / Watchmen [Ultimate cut] (2009) Remux 1080p Ukr/Eng | Sub Ukr/Eng

Хранителі [Максимальна версія] / Watchmen [Ultimate cut] (2009) Remux 1080p Ukr/Eng | Sub Ukr/Eng


Жанр: фантастика, бойовик, трилер, драма
Країна: CША



Кінокомпанія: DC Comics | Lawrence Gordon Productions | Legendary Pictures | Paramount Pictures | Warner Bros. Pictures Co.
Режисер: Зак Снайдер (Zack Snyder)
Актори: Малін Акерман (Malin Akerman), Біллі Крудап (Billy Crudup), Метью Гуд (Matthew Goode), Джекі Ерл Хейлі (Jackie Earle Haley), Джефрі Дін Морган (Jeffrey Dean Morgan), Патрік Уілсон (Patrick Wilson), Карла Гуджино (Carla Gugino), Мет Фрюер (Matt Frewer), Стівен МакХетті (Stephen McHattie), Лаура Менел (Laura Mennell)

Сюжет:
Дія фільму відбувається в паралельній реальності, в Америці 1985 року. В цьому світі супергерої стали частиною буденного життя суспільства, а Годинник Судного Дня, зупинившись за п'ять хвилин до півночі, веде відлік до зіткнення провідних світових держав. Після вбивства одного зі своїх колишніх колег Роршах - герой, що ніколи не знімав маску, - рішуче налаштований влаштувати суд Лінча.
Він починає розслідування змови, що має на меті знищити або дискредитувати всіх супергероїв минулого і сьогодення. Він збирає своїх друзів - відставний легіон борців із злочинністю, але лише один з них володіє справжньою силою. Поступово Роршах усвідомлює лякаючий масштаб змови, пов'язаної із спільним минулим героїв і пророкує катастрофічні наслідки в майбутньому. Вони охороняють наш спокій, але хто оберігатиме нас від Хранителів?


Тривалість: 03:35:26 (Порівняння Режисерської та Максимальної версій)
Якість: Remux 1080p
Відео:
кодек:
розмір кадру: 1920 х 1080
бітрейт: 22,3 Мб/с

Аудіо # 1:
мова: українська
переклад: професійний дубльований + аматорський багатоголосий закадровий з вставками оригіналу
кодек: 5.1
бітрейт: 448 кб/с

Аудіо # 2:
мова: українська
переклад: професійний дубльований з вставками оригіналу
кодек: 5.1
бітрейт: 448 кб/с

Аудіо # 3:
мова: англійська
переклад: оригінал
кодек: 5.1
бітрейт: 640 кб/с

Аудіо # 4:
мова: англійська
переклад: оригінал
кодек: -HD MA 5.1
бітрейт: 2229 кб/с

Аудіо # 5:
мова: англійська
переклад: коментар Зака Снайдера
кодек: 2.0
бітрейт: 192 кб/с

Аудіо # 6:
мова: англійська
переклад: коментар Dave Gibbons
кодек: 2.0
бітрейт: 192 кб/с

Джерело озвучення:


Субтитри # 1 - 2:
мова: українська (форсовані)
тип: програмні (м'які)
формат: *.srt

Субтитри # 3:
мова: українська (повні)
тип: програмні (м'які)
формат: *.srt

Субтитри # 4 - 5:
мова: англійська (повні, SDH)
тип: програмні (м'які)
формат: *.srt

Збережено оригінальні розділи, як на Blu-ray.
Info
Код:
General
Complete name                            : Watchmen [Ultimate cut] (2009) Remux 1080p [ukr,eng_sub.ukr,eng] [ViDeO_Hurtom].
Format                                   :
Format version                           : Version 4
File size                                : 39.9 GiB
Duration                                 : 3 h 35 min
Overall bit rate mode                    : Variable
Overall bit rate                         : 26.5 Mb/s
Movie name                               : Watchmen [Ultimate cut] (2009) Remux 1080p [ukr,eng_sub.ukr,eng] [ViDeO_Hurtom]
Encoded date                             : UTC 2019-11-14 19:20:21
Writing application                      : v30.1.0 ('Forever And More') 64-bit
Writing library                          : libebml v1.3.6 + v1.4.9
Cover                                    : Yes
Attachments                              : cover.jpg

Video
ID                                       : 1
Format                                   : VC-1
Format profile                           : [email protected]
Codec ID                                 : V_MS/VFW/FOURCC / WVC1
Codec ID/Hint                            : Microsoft
Duration                                 : 3 h 35 min
Bit rate                                 : 22.3 Mb/s
Width                                    : 1 920 pixels
Height                                   : 1 080 pixels
Display aspect ratio                     : 16:9
Frame rate mode                          : Constant
Frame rate                               : 23.976 (23976/1000) FPS
Original frame rate                      : 23.976 (24000/1001) FPS
Color space                              : YUV
Chroma subsampling                       : 4:2:0
Bit depth                                : 8 bits
Scan type                                : Progressive
Compression mode                         : Lossy
Bits/(Pixel*Frame)                       : 0.448
Stream size                              : 33.5 GiB (84%)
Language                                 : English
Default                                  : No
Forced                                   : No

Audio #1
ID                                       : 2
Format                                   : AC-3
Format/Info                              : Audio Coding 3
Commercial name                          : Dolby Digital
Codec ID                                 : A_AC3
Duration                                 : 3 h 35 min
Bit rate mode                            : Constant
Bit rate                                 : 448 kb/s
Channel(s)                               : 6 channels
Channel layout                           : L R C LFE Ls Rs
Sampling rate                            : 48.0 kHz
Frame rate                               : 31.250 FPS (1536 SPF)
Bit depth                                : 16 bits
Compression mode                         : Lossy
Stream size                              : 690 MiB (2%)
Title                                    : ; 6ch; 448kbps  48kHz
Language                                 : Ukrainian
Service kind                             : Complete Main
Default                                  : Yes
Forced                                   : No

Audio #2
ID                                       : 3
Format                                   : AC-3
Format/Info                              : Audio Coding 3
Commercial name                          : Dolby Digital
Codec ID                                 : A_AC3
Duration                                 : 3 h 35 min
Bit rate mode                            : Constant
Bit rate                                 : 448 kb/s
Channel(s)                               : 6 channels
Channel layout                           : L R C LFE Ls Rs
Sampling rate                            : 48.0 kHz
Frame rate                               : 31.250 FPS (1536 SPF)
Bit depth                                : 16 bits
Compression mode                         : Lossy
Stream size                              : 690 MiB (2%)
Title                                    : ; 6ch; 448kbps  48kHz
Language                                 : Ukrainian
Service kind                             : Complete Main
Default                                  : No
Forced                                   : No

Audio #3
ID                                       : 4
Format                                   : AC-3
Format/Info                              : Audio Coding 3
Commercial name                          : Dolby Digital
Codec ID                                 : A_AC3
Duration                                 : 3 h 35 min
Bit rate mode                            : Constant
Bit rate                                 : 640 kb/s
Channel(s)                               : 6 channels
Channel layout                           : L R C LFE Ls Rs
Sampling rate                            : 48.0 kHz
Frame rate                               : 31.250 FPS (1536 SPF)
Bit depth                                : 16 bits
Compression mode                         : Lossy
Stream size                              : 986 MiB (2%)
Title                                    : ; 6ch; 640kbps  48kHz
Language                                 : English
Service kind                             : Complete Main
Default                                  : No
Forced                                   : No

Audio #4
ID                                       : 5
Format                                   : XLL
Format/Info                              : Digital Theater Systems
Commercial name                          : -HD Master Audio
Codec ID                                 : A_DTS
Duration                                 : 3 h 35 min
Bit rate mode                            : Variable
Bit rate                                 : 2 280 kb/s
Channel(s)                               : 6 channels
Channel layout                           : C L R Ls Rs LFE
Sampling rate                            : 48.0 kHz
Frame rate                               : 93.750 FPS (512 SPF)
Bit depth                                : 16 bits
Compression mode                         : Lossless
Stream size                              : 3.43 GiB (9%)
Title                                    : -HD MA; 6ch; 1509kbps core; 16bit; 48kHz
Language                                 : English
Default                                  : No
Forced                                   : No

Audio #5
ID                                       : 6
Format                                   : AC-3
Format/Info                              : Audio Coding 3
Commercial name                          : Dolby Digital
Codec ID                                 : A_AC3
Duration                                 : 3 h 35 min
Bit rate mode                            : Constant
Bit rate                                 : 192 kb/s
Channel(s)                               : 2 channels
Channel layout                           : L R
Sampling rate                            : 48.0 kHz
Frame rate                               : 31.250 FPS (1536 SPF)
Bit depth                                : 16 bits
Compression mode                         : Lossy
Stream size                              : 296 MiB (1%)
Title                                    : ; 2ch; 192kbps; 48kHz (Commentary with Zack Snyder)
Language                                 : English
Service kind                             : Complete Main
Default                                  : No
Forced                                   : No

Audio #6
ID                                       : 7
Format                                   : AC-3
Format/Info                              : Audio Coding 3
Commercial name                          : Dolby Digital
Codec ID                                 : A_AC3
Duration                                 : 3 h 35 min
Bit rate mode                            : Constant
Bit rate                                 : 192 kb/s
Channel(s)                               : 2 channels
Channel layout                           : L R
Sampling rate                            : 48.0 kHz
Frame rate                               : 31.250 FPS (1536 SPF)
Bit depth                                : 16 bits
Compression mode                         : Lossy
Stream size                              : 296 MiB (1%)
Title                                    : ; 2ch; 192kbps; 48kHz (Commentary with Dave Gibbons)
Language                                 : English
Service kind                             : Complete Main
Default                                  : No
Forced                                   : No

Text #1
ID                                       : 8
Format                                   : UTF-8
Codec ID                                 : S_TEXT/UTF8
Codec ID/Info                            : UTF-8 Plain Text
Duration                                 : 3 h 29 min
Bit rate                                 : 15 b/s
Count of elements                        : 390
Stream size                              : 24.0 KiB (0%)
Title                                    : Forced
Language                                 : Ukrainian
Default                                  : Yes
Forced                                   : No

Text #2
ID                                       : 9
Format                                   : UTF-8
Codec ID                                 : S_TEXT/UTF8
Codec ID/Info                            : UTF-8 Plain Text
Duration                                 : 3 h 29 min
Bit rate                                 : 24 b/s
Count of elements                        : 605
Stream size                              : 37.5 KiB (0%)
Title                                    : Forced
Language                                 : Ukrainian
Default                                  : No
Forced                                   : No

Text #3
ID                                       : 10
Format                                   : UTF-8
Codec ID                                 : S_TEXT/UTF8
Codec ID/Info                            : UTF-8 Plain Text
Duration                                 : 3 h 34 min
Bit rate                                 : 85 b/s
Count of elements                        : 2269
Stream size                              : 135 KiB (0%)
Title                                    : Full
Language                                 : Ukrainian
Default                                  : No
Forced                                   : No

Text #4
ID                                       : 11
Format                                   : UTF-8
Codec ID                                 : S_TEXT/UTF8
Codec ID/Info                            : UTF-8 Plain Text
Duration                                 : 3 h 24 min
Bit rate                                 : 52 b/s
Count of elements                        : 2211
Stream size                              : 78.1 KiB (0%)
Title                                    : Full
Language                                 : English
Default                                  : No
Forced                                   : No

Text #5
ID                                       : 12
Format                                   : UTF-8
Codec ID                                 : S_TEXT/UTF8
Codec ID/Info                            : UTF-8 Plain Text
Duration                                 : 3 h 35 min
Bit rate                                 : 51 b/s
Count of elements                        : 2336
Stream size                              : 81.7 KiB (0%)
Title                                    : SDH
Language                                 : English
Default                                  : No
Forced                                   : No

Menu
00:00:00.000                             : :Chapter 01
00:05:42.008                             : :Chapter 02
00:11:16.509                             : :Chapter 03
00:16:05.339                             : :Chapter 04
00:19:05.561                             : :Chapter 05
00:23:48.718                             : :Chapter 06
00:26:53.403                             : :Chapter 07
00:29:44.115                             : :Chapter 08
00:34:42.580                             : :Chapter 09
00:39:31.494                             : :Chapter 10
00:44:06.018                             : :Chapter 11
00:48:03.255                             : :Chapter 12
00:50:31.945                             : :Chapter 13
00:54:45.198                             : :Chapter 14
00:59:14.842                             : :Chapter 15
01:01:19.634                             : :Chapter 16
01:03:36.813                             : :Chapter 17
01:06:15.262                             : :Chapter 18
01:09:29.582                             : :Chapter 19
01:16:10.732                             : :Chapter 20
01:20:53.139                             : :Chapter 21
01:23:12.987                             : :Chapter 22
01:26:44.616                             : :Chapter 23
01:28:45.987                             : :Chapter 24
01:31:46.250                             : :Chapter 25
01:36:50.805                             : :Chapter 26
01:41:16.695                             : :Chapter 27
01:47:08.213                             : :Chapter 28
01:50:40.550                             : :Chapter 29
01:54:04.879                             : :Chapter 30
01:59:51.934                             : :Chapter 31
02:09:07.072                             : :Chapter 32
02:13:44.057                             : :Chapter 33
02:15:31.123                             : :Chapter 34
02:20:35.009                             : :Chapter 35
02:23:39.152                             : :Chapter 36
02:27:55.616                             : :Chapter 37
02:32:50.619                             : :Chapter 38
02:37:03.831                             : :Chapter 39
02:39:45.993                             : :Chapter 40
02:44:40.704                             : :Chapter 41
02:49:32.495                             : :Chapter 42
02:56:16.399                             : :Chapter 43
02:58:59.145                             : :Chapter 44
03:04:13.959                             : :Chapter 45
03:06:16.081                             : :Chapter 46
03:10:27.916                             : :Chapter 47
03:14:07.427                             : :Chapter 48
03:17:31.130                             : :Chapter 49
03:20:01.656                             : :Chapter 50
03:24:40.351                             : :Chapter 51
Скріншоти




Окремо українські аудіодоріжки та субтитри можна завантажити тут
Джерело:
Особиста оцінка: 8 - мені сподобалося


Золотий реліз (завантажене не впливає на рейтинг)
 Трекер:    Зареєстрований   

Завантажити / скачати фільм українською



відео для новачків



 Зареєстрований:   2019-11-15 10:46
 Розмір:   39.86 GB 
 Оцінка фільму:   9.9/10 (Голосів: 9)
   
Інші релізи
   Хранителі / Watchmen (2009) [Open Matte] AVC Ukr/Eng | Sub Ukr/Eng Maters  2 / 0   4.15 GB   2019-11-19 01:26 
   Хранителі [Максимальна версія] / Watchmen [Ultimate cut] (2009) 720p Ukr/Eng | Sub Ukr/Eng antik_2008  2 / 0   8.9 GB   2019-11-14 13:45 
   Хранителі [Максимальна версія] / Watchmen (2009) [Ultimate cut] mini 1080p H.265 Ukr/Eng | Sub Ukr/Eng -Star-Lord-  21 / 0   8.25 GB   2019-01-22 23:23 
   Хранителі [Максимальна версія] / Watchmen (2009) [Ultimate cut] AVC Ukr/Eng | Sub Ukr/Eng Bod_zik99  19 / 0   4.26 GB   2016-05-01 13:20 
   Хранителі [Максимальна версія] / Watchmen [Ultimate cut] (2009) 1080p Ukr/Eng | Sub Ukr/Eng Demrandir  11 / 0   25.68 GB   2016-04-30 15:36 
   Хранителі [Максимальна версія] / Watchmen [Ultimate cut] (2009) [5.1 ] Український дубляж + вставки оригіналу | Sub Ukr Demrandir  1 / 0   1.35 GB   2016-04-30 15:06 
   Хранителі [Режисерська версія] / Watchmen [Director's Cut] (2009) 720p Ukr/Eng | Sub Ukr/Eng Bod_zik99  5 / 0   6.99 GB   2016-01-12 20:29 
   Хранителі / Watchmen (2009) 720p Ukr/Eng | Sub Ukr/Eng leroykendall  2 / 0   8.45 GB   2011-11-19 04:03 
   Хранителі / Watchmen (2009) karvai0  3 / 0   2.54 GB   2010-03-30 17:23 
   Хранителі / Watchmen (2009) DVD-9 Ukr/Eng BANDERA_905  1 / 0   6.11 GB   2009-10-20 14:16 
   Хранителі / Watchmen (2009) 1080p Ukr/Eng | Sub Ukr/Eng Tenax555  3 / 0   15.49 GB   2009-09-22 00:00 
   Хранителі / Watchmen [Director's Cut] (2009) Ukr/Eng | Sub Eng Romario_O  0 / 2   3.41 GB   2009-09-06 21:19 
   Хранителі / Watchmen (2009) antik_2008  3 / 0   2 GB   2009-09-03 20:05 
bot 
робот


З нами з: 30.09.07
Востаннє: 26.05.05
Повідомлень: 25622

2019-11-15 10:46  
Тему перенесено з Анонси релізів до форуму Фільми в HD


antik_2008

MakRA 
VIP


З нами з: 11.11.18
Востаннє: 27.09.20
Повідомлень: 1120

2019-11-15 11:41  
Буде привід передивитися Happy
Garikafterwork 
Частий відвідувач


З нами з: 02.10.12
Востаннє: 25.09.20
Повідомлень: 30

2019-11-15 15:58  
Один з найкращих фільмів які я переглядав! Треба повторити.
Anonymous 







2019-11-21 01:08  
MakRA написано:
Буде привід передивитися

Згоден!

Ваш часовий пояс: GMT + 2 Години

Нова тема   Відповісти