Вартові легенд / Rise of the Guardians (2012) Remux 1080p Ukr/Eng | sub Ukr/Eng

Нові коментарі

Нова тема   Відповісти
Автор Повідомлення
Anonymous 







2019-11-14 13:12  
Вартові легенд / Rise of the Guardians (2012) Remux 1080p Ukr/Eng | sub Ukr/Eng

Вартові легенд / Rise of the Guardians (2012) Remux 1080p Ukr/Eng | sub Ukr/Eng

«Naughty, nice. You better believe.»


Жанр: анімація, пригодницький, сімейний
Країна: США



Кіностудія / кінокомпанія: DreamWorks Animation
Режисер: Пітер Ремсі / Peter Ramsey
Актори: Кріс Пайн / Chris Pine, Алек Болдвін / Alec Baldwin, Джуд Лоу / Jude Law, Айла Фішер / Isla Fisher, Г'ю Джекмен / Hugh Jackman, Дакота Ґойо / Dakota Goyo, Камані Ґріффін / Khamani Griffin, Кеміль МакФеддан, Джорджіа Ґреве / Georgie Grieve, Емілі Нордвайнд / Emily Nordwind

Сюжет:
Не думайте, що Санта Клаус вміє лише кататися на оленях. Не вірте, що Зубна Фея здатна лише розносити подаруночки. Не будьте такі впевнені, що Великодній Кролик всього лише постачальник цукерок, а Сніговик просто заморожує все довкола себе, щоб не розтанути. Разом вони — справжній спецзагін, на плечах якого мир та безпека диво-світу!


Тривалість: 01:37:11
Якість: Blu-Ray Remux 1080p

Відео:
кодек:
розмір кадру: 1920x1080
бітрейт: 30,4 Мб/с

Аудіо #1:
мова: українська
переклад: професійний дубльований | LeDoyen Studio
кодек: 5.1
бітрейт: 640 кб/с
Інформація про дубляж

Перекладач і автор синхронного тексту: Федір Сидорук
Режисер дубляжу: Анна Пащенко
Ролі дублювали: Г’ю Джекмен/Кроля — Андрій Самінін, Кріс Пейн/Джек — Андрій Федінчик, Дакота Ґойо/Джеймі — Кирило Лепьошкін, Алек Болдвін/Норд — Микола Боклан, Морок — Іван Розін, Ісла Фішер/Зубка — Катерина Брайковська, Людмила Барбір, Катерина Башкіна-Зленко, Роман Чорний, Максим Чумак, Етель Ененберг, Вікторія Хмельницька, Софія Масаутова, Андрій Мостренко, Аліна Овчаренко, Сергій Солопай, Богдан Темченко, Юлія Угрин, Дмитро Вікулов, Михайло Жогло та інші.

Фільм дубльовано на студії LeDoyen
Аудіо #2:
мова: англійська
переклад: оригінал
кодек: -HD MA 7.1
бітрейт: 4808 кб/с

Аудіо #3:
мова: англійська
переклад: оригінал | Commentary |
кодек: 2.0
бітрейт: 224 кб/с

Субтитри #1-2: (Full, Captions)
мова: українська
тип: програмні (м'які)
формат: *.srt

Субтитри #3-5: (Full, SDH, Commentary)
мова: англійська
тип: програмні (м'які)
формат: *.srt

Збережені оригінальні розділи як на Blu-ray


Трейлер

Info

Код:
General
Complete name                            : Rise of the Guardians (2012) Blu-Ray Remux 1080p [ukr, eng] [ViDeO_Hurtom].
Format                                   :
Format version                           : Version 4
File size                                : 24.5 GiB
Duration                                 : 1 h 37 min
Overall bit rate mode                    : Variable
Overall bit rate                         : 36.1 Mb/s
Movie name                               : Rise of the Guardians (2012) Blu-Ray Remux 1080p [ukr, eng] [ViDeO_Hurtom]
Encoded date                             : UTC 2019-11-14 09:39:01
Writing application                      : v30.1.0 ('Forever And More') 64-bit
Writing library                          : libebml v1.3.6 + v1.4.9
Cover                                    : Yes
Attachments                              : cover.jpg

Video
ID                                       : 1
Format                                   : AVC
Format/Info                              : Advanced Video Codec
Format profile                           : [email protected]
Format settings                          : CABAC / 4 Ref Frames
Format settings, CABAC                   : Yes
Format settings, RefFrames               : 4 frames
Format settings, GOP                     : M=1, N=12
Codec ID                                 : V_MPEG4/ISO/AVC
Duration                                 : 1 h 37 min
Bit rate mode                            : Variable
Bit rate                                 : 30.4 Mb/s
Maximum bit rate                         : 33.0 Mb/s
Width                                    : 1 920 pixels
Height                                   : 1 080 pixels
Display aspect ratio                     : 16:9
Frame rate mode                          : Constant
Frame rate                               : 23.976 (24000/1001) FPS
Color space                              : YUV
Chroma subsampling                       : 4:2:0
Bit depth                                : 8 bits
Scan type                                : Progressive
Bits/(Pixel*Frame)                       : 0.612
Stream size                              : 20.7 GiB (84%)
Title                                    : NTSC, 1920x1080 (16/9), Untached ~30836 kbps avg, Remux 1080p - tRuAVC & Multfilmy [DFCbit]
Language                                 : English
Default                                  : Yes
Forced                                   : No

Audio #1
ID                                       : 2
Format                                   : AC-3
Format/Info                              : Audio Coding 3
Commercial name                          : Dolby Digital
Codec ID                                 : A_AC3
Duration                                 : 1 h 37 min
Bit rate mode                            : Constant
Bit rate                                 : 640 kb/s
Channel(s)                               : 6 channels
Channel layout                           : L R C LFE Ls Rs
Sampling rate                            : 48.0 kHz
Frame rate                               : 31.250 FPS (1536 SPF)
Bit depth                                : 16 bits
Compression mode                         : Lossy
Stream size                              : 445 MiB (2%)
Title                                    : , 6 ch, 48 kHz, 640 kbps, Dubbing
Language                                 : Ukrainian
Service kind                             : Complete Main
Default                                  : Yes
Forced                                   : No

Audio #2
ID                                       : 3
Format                                   : XLL
Format/Info                              : Digital Theater Systems
Commercial name                          : -HD Master Audio
Codec ID                                 : A_DTS
Duration                                 : 1 h 37 min
Bit rate mode                            : Variable
Bit rate                                 : 4 808 kb/s
Channel(s)                               : 8 channels
Channel layout                           : C L R LFE Lb Rb Lss Rss
Sampling rate                            : 48.0 kHz
Frame rate                               : 93.750 FPS (512 SPF)
Bit depth                                : 24 bits
Compression mode                         : Lossless
Stream size                              : 3.26 GiB (13%)
Title                                    : -HD MA / 7.1 / 48 kHz / 4807 kbps / 24-bit ( Core: 5.1 / 48 kHz / 1509 kbps / 24-bit), Original
Language                                 : English
Default                                  : No
Forced                                   : No

Audio #3
ID                                       : 4
Format                                   : AC-3
Format/Info                              : Audio Coding 3
Commercial name                          : Dolby Digital
Codec ID                                 : A_AC3
Duration                                 : 1 h 37 min
Bit rate mode                            : Constant
Bit rate                                 : 224 kb/s
Channel(s)                               : 2 channels
Channel layout                           : L R
Sampling rate                            : 48.0 kHz
Frame rate                               : 31.250 FPS (1536 SPF)
Bit depth                                : 16 bits
Compression mode                         : Lossy
Stream size                              : 156 MiB (1%)
Title                                    : , 2 ch, 48 kHz, 224 kbps, Commentary
Language                                 : English
Service kind                             : Complete Main
Default                                  : No
Forced                                   : No

Text #1
ID                                       : 5
Format                                   : UTF-8
Codec ID                                 : S_TEXT/UTF8
Codec ID/Info                            : UTF-8 Plain Text
Duration                                 : 1 h 36 min
Bit rate                                 : 73 b/s
Count of elements                        : 1185
Stream size                              : 51.9 KiB (0%)
Title                                    : SRT, Full
Language                                 : Ukrainian
Default                                  : No
Forced                                   : No

Text #2
ID                                       : 6
Format                                   : UTF-8
Codec ID                                 : S_TEXT/UTF8
Codec ID/Info                            : UTF-8 Plain Text
Duration                                 : 1 h 24 min
Bit rate                                 : 0 b/s
Count of elements                        : 5
Stream size                              : 207 Bytes (0%)
Title                                    : SRT, Captions
Language                                 : Ukrainian
Default                                  : No
Forced                                   : No

Text #3
ID                                       : 7
Format                                   : UTF-8
Codec ID                                 : S_TEXT/UTF8
Codec ID/Info                            : UTF-8 Plain Text
Duration                                 : 1 h 27 min
Bit rate                                 : 48 b/s
Count of elements                        : 1174
Stream size                              : 30.8 KiB (0%)
Title                                    : SRT, Full
Language                                 : English
Default                                  : No
Forced                                   : No

Text #4
ID                                       : 8
Format                                   : UTF-8
Codec ID                                 : S_TEXT/UTF8
Codec ID/Info                            : UTF-8 Plain Text
Duration                                 : 1 h 32 min
Bit rate                                 : 56 b/s
Count of elements                        : 1543
Stream size                              : 38.0 KiB (0%)
Title                                    : SRT, (SDH)
Language                                 : English
Default                                  : No
Forced                                   : No

Text #5
ID                                       : 9
Format                                   : UTF-8
Codec ID                                 : S_TEXT/UTF8
Codec ID/Info                            : UTF-8 Plain Text
Duration                                 : 1 h 28 min
Bit rate                                 : 108 b/s
Count of elements                        : 1501
Stream size                              : 70.1 KiB (0%)
Title                                    : SRT, Commentary
Language                                 : English
Default                                  : No
Forced                                   : No

Menu
00:00:00.000                             : en:Chapter 1
00:03:51.481                             : en:Chapter 2
00:10:34.843                             : en:Chapter 3
00:16:17.643                             : en:Chapter 4
00:24:49.363                             : en:Chapter 5
00:30:38.378                             : en:Chapter 6
00:36:38.947                             : en:Chapter 7
00:43:05.166                             : en:Chapter 8
00:50:22.311                             : en:Chapter 9
00:58:09.611                             : en:Chapter 10
01:03:55.331                             : en:Chapter 11
01:09:12.815                             : en:Chapter 12
01:14:03.189                             : en:Chapter 13
01:20:44.923                             : en:Chapter 14
01:24:51.503                             : en:Chapter 15
01:28:33.892                             : en:Chapter 16

Світлини





Джерело: &
Особиста оцінка: 9 - давно не бачив настільки якісне кіно


Золотий реліз (завантажене не впливає на рейтинг)
 Трекер:    Зареєстрований   

Завантажити / скачати мультфільм українською



відео для новачків



 Зареєстрований:   2019-11-14 19:43
 Розмір:   24.52 GB 
 Оцінка мультфільму:   9.5/10 (Голосів: 12)
   
Garikafterwork 
Частий відвідувач


З нами з: 02.10.12
Востаннє: 05.08.20
Повідомлень: 29

2019-11-24 20:00  
Один з найкращих мультфільмів сучасності.
mykolazz 
Новенький


З нами з: 23.07.17
Востаннє: 12.07.20
Повідомлень: 1

2020-03-02 14:57  
На раз подивитись норм, але для самих молодших класів може бути зарано - Бабай дещо занадто злий.
Сам сюжет достатьно банальний - прокидається зло, мерщій збираємо команду для боротьби, а всіх врятує той, кому це найменш цікаво. Такий собі мультяшний блокбастер..

Ваш часовий пояс: GMT + 2 Години

Нова тема   Відповісти