Скубі-Ду на острові Мерців / Scooby-Doo on Zombie Island (1998) 1080p Ukr/Eng | Sub Eng

Нові коментарі

Нова тема   Відповісти
Автор Повідомлення
Anonymous 







2019-11-14 09:56  
Скубі-Ду на острові Мерців / Scooby-Doo on Zombie Island (1998) 1080p Ukr/Eng | Sub Eng

Скубі-Ду на острові Мерців / Scooby-Doo on Zombie Island (1998) 1080p Ukr/Eng | Sub Eng


Жанр: анімація, комедія, сімейний, пригоди
Країна: США
Кінокомпанія: Warner Bros. Animation
Режисер: Хіроші Аояма, Казуми Фукушіма
Актори: Скотт Іннес, Біллі Уест, Мері Кей Бергман, Френк Уелкер, Б.Дж. Уорд, Едрієнн Барбо, Тара Стронг, Кем Кларк, Джим Каммінгс, Марк Хемілл

Сюжет:
На острові Мерців оселився привид-головоріз! Чудова справа для чотирилапого героя! Скубі-Ду доведеться позбутися непрошеного гостя. Але монстр виявляється не найстрашнішим мешканцем таємничого острова.

Тривалість: 01:16:35
Якість:

Відео:
кодек:
розмір кадру: 1440 x 1080
бітрейт: 10 534 кб/с

Аудіо # 1:
мова: українська
переклад: багатоголосий закадровий
кодек: AC-3 2.0
бітрейт: 192 кб/с

Аудіо # 2:
мова: англійська
переклад: оригінал
кодек: E-AC-3 2.0
бітрейт: 224 кб/с

Субтитри # 1-2: (Full, SDH)
мова: англійська
тип: програмні (м'які)
формат: *.srt


Info
Код:
General
Unique ID                                : 226483504768849198614120574174919224234 (0xAA6322E96EED3EA3A2BAE3775BBD6BAA)
Complete name                            : Scooby-Doo on Zombie Island (1998) 1080p [UKR_ENG] [Hurtom].
Format                                   :
Format version                           : Version 4
File size                                : 5.86 GiB
Duration                                 : 1 h 16 min
Overall bit rate                         : 10.9 Mb/s
Movie name                               : Скубі-Ду на острові Мерців / Scooby-Doo on Zombie Island (1998)
Encoded date                             : UTC 2019-11-14 06:54:23
Writing application                      : v20.0.0 ('I Am The Sun') 64-bit
Writing library                          : libebml v1.3.5 + v1.4.8
Cover                                    : Yes
Attachments                              : Cover.jpg

Video
ID                                       : 1
Format                                   : AVC
Format/Info                              : Advanced Video Codec
Format profile                           : [email protected]
Format settings                          : CABAC / 4 Ref Frames
Format settings, CABAC                   : Yes
Format settings, Reference frames        : 4 frames
Codec ID                                 : V_MPEG4/ISO/AVC
Duration                                 : 1 h 16 min
Bit rate                                 : 10.5 Mb/s
Width                                    : 1 440 pixels
Height                                   : 1 080 pixels
Display aspect ratio                     : 4:3
Frame rate mode                          : Constant
Frame rate                               : 23.976 (24000/1001) FPS
Color space                              : YUV
Chroma subsampling                       : 4:2:0
Bit depth                                : 8 bits
Scan type                                : Progressive
Bits/(Pixel*Frame)                       : 0.282
Stream size                              : 5.63 GiB (96%)
Title                                    : Скубі-Ду на острові Мерців / Scooby-Doo on Zombie Island (1998)
Language                                 : English
Default                                  : Yes
Forced                                   : No
Color range                              : Limited
Color primaries                          : BT.709
Transfer characteristics                 : BT.709
Matrix coefficients                      : BT.709

Audio #1
ID                                       : 2
Format                                   : AC-3
Format/Info                              : Audio Coding 3
Commercial name                          : Dolby Digital
Codec ID                                 : A_AC3
Duration                                 : 1 h 16 min
Bit rate mode                            : Constant
Bit rate                                 : 192 kb/s
Channel(s)                               : 2 channels
Channel layout                           : L R
Sampling rate                            : 48.0 kHz
Frame rate                               : 31.250 FPS (1536 SPF)
Bit depth                                : 16 bits
Compression mode                         : Lossy
Stream size                              : 105 MiB (2%)
Title                                    : / 2.0 Ch / 192 kbps / БЗ / Novy Kanal
Language                                 : Ukrainian
Service kind                             : Complete Main
Default                                  : Yes
Forced                                   : Yes

Audio #2
ID                                       : 3
Format                                   : E-AC-3
Format/Info                              : Enhanced AC-3
Commercial name                          : Dolby Digital Plus
Codec ID                                 : A_EAC3
Duration                                 : 1 h 16 min
Bit rate mode                            : Constant
Bit rate                                 : 224 kb/s
Channel(s)                               : 2 channels
Channel layout                           : L R
Sampling rate                            : 48.0 kHz
Frame rate                               : 31.250 FPS (1536 SPF)
Compression mode                         : Lossy
Stream size                              : 123 MiB (2%)
Title                                    : E- / 2.0 Ch / 224 kbps / Original
Language                                 : English
Service kind                             : Complete Main
Default                                  : No
Forced                                   : No

Text #1
ID                                       : 4
Format                                   : UTF-8
Codec ID                                 : S_TEXT/UTF8
Codec ID/Info                            : UTF-8 Plain Text
Duration                                 : 1 h 14 min
Bit rate                                 : 59 b/s
Count of elements                        : 1098
Stream size                              : 32.4 KiB (0%)
Title                                    : Full
Language                                 : English
Default                                  : No
Forced                                   : No

Text #2
ID                                       : 5
Format                                   : UTF-8
Codec ID                                 : S_TEXT/UTF8
Codec ID/Info                            : UTF-8 Plain Text
Duration                                 : 1 h 16 min
Bit rate                                 : 70 b/s
Count of elements                        : 1549
Stream size                              : 39.3 KiB (0%)
Title                                    : SDH
Language                                 : English
Default                                  : No
Forced                                   : No

Menu
00:00:00.000                             : en:The gang solves a mystery, Opening Credits
00:03:47.000                             : en:Daphne shares her adventures and upcoming plans
00:05:14.000                             : en:Scooby and Shaggy work in customs
00:06:23.000                             : en:Velma mourns the good old days
00:07:07.000                             : en:Scooby and Shaggy get in trouble
00:08:15.000                             : en:Fred surprises Daphne before their trip
00:10:07.000                             : en:The gang solves mysteries across the country
00:11:35.000                             : en:The gang gets a lead on a potential mystery
00:14:24.000                             : en:Scooby and the gang head to the island
00:16:45.000                             : en:The ferry crosses the bayou
00:20:24.000                             : en:The gang arrive on Moonscar Island
00:21:29.000                             : en:The gang meets Simone Lenoir
00:24:46.000                             : en:Shaggy and Scooby sample the food from Simone's kitchen
00:28:45.000                             : en:Simone tells the gang about Morgan Moonscar's treasure
00:30:11.000                             : en:Velma makes a discovery
00:31:42.000                             : en:Scooby chases away some cats
00:34:06.000                             : en:Scooby and Shaggy have a close encounter with a zombie
00:36:41.000                             : en:The gang investigates the pit
00:38:10.000                             : en:Lena shows the gang to their rooms
00:39:03.000                             : en:Shaggy sees a ghost
00:41:53.000                             : en:The gang eat dinner
00:43:19.000                             : en:Shaggy and Scooby dine outside
00:44:41.000                             : en:Fred, Velma, and Daphne ponder the ghosts' motives
00:45:08.000                             : en:Scooby and Shaggy make a discovery
00:47:38.000                             : en:The gang decides to search for Shaggy and Scooby
00:48:11.000                             : en:Fred, Daphne, and Velma find Beau
00:48:59.000                             : en:Velma expresses her suspicions
00:49:39.000                             : en:Fred and Daphne make a discovery
00:53:04.000                             : en:The gang run from zombies
00:54:41.000                             : en:Scooby and Shaggy discover familiar wax dolls
00:56:50.000                             : en:The gang searches for Lena and Simone
00:58:22.000                             : en:The gang follows the tunnel to a strange room
01:01:13.000                             : en:Scooby and Shaggy run for the ferry
01:01:54.000                             : en:Simone reveals the werecats' history
01:04:51.000                             : en:Shaggy and Scooby stumble into the ritual chamber
01:08:37.000                             : en:The gang turns the tables on the werecats
01:10:25.000                             : en:Beau reveals his identity
01:11:13.000                             : en:The gang leaves the island
01:13:11.000                             : en:End Credits
Світлини




Джерело: &
Особиста оцінка: 0 - не дивився


Срібний реліз (на рейтинг впливає 50% завантаженого)
 Трекер:    Зареєстрований   

Завантажити / скачати мультфільм українською



відео для новачків



 Зареєстрований:   2019-11-14 17:22
 Розмір:   5.86 GB 
 Оцінка мультфільму:   10/10 (Голосів: 5)
   
Ваш часовий пояс: GMT + 2 Години

Нова тема   Відповісти