Буркотун / Il burbero (1986) Remux 1080p [Remastered] Ukr/Ita | Sub Ita

Нові коментарі

Нова тема   Відповісти
Автор Повідомлення
MakRA 
VIP


З нами з: 10.11.18
Востаннє: 20.01.20
Повідомлень: 674

2019-11-14 00:22  
Буркотун / Il burbero (1986) Remux 1080p [Remastered] Ukr/Ita | Sub Ita


Альтернативний постер:

Жанр: комедія, пригодницький, романтичний
Країна: Італія



Кінокомпанія: C.G. Silver Film, Alexandra
Режисер: Франко Кастелано [Franco Castellano], Джузеппе Моччіа [Giuseppe Moccia]
Актори: Адріано Челентано [Adriano Celentano], Дебра Фойер [Debra Feuer], Жан Сорель [Jean Sorel], Маттіа Сбраджа [Mattia Sbragia], Анджела Фінокк'яро [Angela Finocchiaro], Пеппе Ланцетта [Peppe Lanzetta], Персі Хоган [Percy Hogan]

Сюжет:
Американка Мері Чіміно (Дебра Фойєр) знайомиться з відлюдним і вибагливим італійцем — адвокатом Тіто Торрізі (Адріано Челентано) в аеропорту Нью-Йорка, умовляючи його продати другий квиток до Флоренції, де її чекає чоловік, Джуліо Макіавеллі, який пообіцяв сюрприз на 15 мільярдів лір. Прибувши до Італії, Мері стикається з небезпечними пригодами через скарб, знайдений її чоловіком, якого переслідує банда гангстерів...


Тривалість: 01:44:55
Якість: Remux 1080p [Remastered] [GER Transfer]
Відео:
кодек:
розмір кадру: 1920 х 1080
бітрейт: 37 Mб/с

Аудіо # 1:
мова: українська
переклад: багатоголосий закадровий
кодек: 2.0
бітрейт: 192 кб/с
Примітка: присутня одна фраза без перекладу (вирізано в ТБ трансляції) ) 01:19:15 - 01:19:19

Аудіо # 2:
мова: італійська
переклад: оригінал
кодек: LPCM 2.0
бітрейт: 2304 кб/с

Субтитри: (Full-Colored)
мова: італійська
тип: програмні (м'які)
формат: *.
Info
General
Unique ID : 105805480954252645747146524750511192599 (0x4F9964F7BA06681911B5B95C5EF1BA17)
Complete name : I:\+Фільмографії- Адріано Челентано [Adriano Celentano]\Il burbero (1986) Remux 1080p [Remastered] UkrIta Sub Ita [Hurtom].
Format :
Format version : Version 4
File size : 28.9 GiB
Duration : 1 h 44 min
Overall bit rate mode : Variable
Overall bit rate : 39.4 Mb/s
Movie name : Буркотун / Il burbero (1986) Remux 1080p [Remastered] Ukr/Ita | Sub Ita [Hurtom]
Encoded date : UTC 2019-11-13 22:04:23
Writing application : v25.0.0 ('Prog Noir') 64-bit
Writing library : libebml v1.3.6 + v1.4.9
Cover : Yes
Attachments : cover.jpg

Video
ID : 1
Format : AVC
Format/Info : Advanced Video Codec
Format profile : [email protected]
Format settings : CABAC / 3 Ref Frames
Format settings, CABAC : Yes
Format settings, Reference fra : 3 frames
Codec ID : V_MPEG4/ISO/AVC
Duration : 1 h 44 min
Bit rate mode : Variable
Bit rate : 37.0 Mb/s
Width : 1 920 pixels
Height : 1 080 pixels
Display aspect ratio : 16:9
Frame rate mode : Constant
Frame rate : 23.976 (24000/1001) FPS
Standard : NTSC
Color space : YUV
Chroma subsampling : 4:2:0
Bit depth : 8 bits
Scan type : Progressive
Bits/(Pixel*Frame) : 0.744
Stream size : 27.1 GiB (94%)
Title : Il burbero (1986) Remux 1080p [Remastered] Ukr/Ita | Sub Ita [Hurtom]
Writing library : x264pro - Adobe CS Exporter Plug-in
Encoding settings : cabac=1 / ref=4 / deblock=1:-2:-2 / analyse=0x3:0x113 / me=umh / subme=9 / psy=1 / psy_rd=1.00:0.25 / mixed_ref=1 / me_range=16 / chroma_me=1 / trellis=1 / 8x8dct=1 / cqm=0 / deadzone=6,6 / fast_pskip=1 / chroma_qp_offset=-4 / threads=16 / lookahead_threads=2 / sliced_threads=0 / slices=4 / nr=0 / decimate=0 / interlaced=0 / bluray_compat=1 / constrained_intra=0 / bframes=3 / b_pyramid=1 / b_adapt=2 / b_bias=0 / direct=3 / weightb=1 / open_gop=0 / weightp=1 / keyint=24 / keyint_min=1 / scenecut=40 / intra_refresh=0 / rc_lookahead=24 / rc=crf / mbtree=1 / crf=1.0 / qcomp=0.80 / qpmin=0 / qpmax=69 / qpstep=4 / vbv_maxrate=37000 / vbv_bufsize=30000 / crf_max=0.0 / nal_hrd=vbr / ip_ratio=1.10 / aq=1:0.50
Language : Ukrainian
Default : Yes
Forced : Yes
Color range : Limited
Color primaries : BT.709
Transfer characteristics : BT.709
Matrix coefficients : BT.709

Audio #1
ID : 2
Format : AC-3
Format/Info : Audio Coding 3
Commercial name : Dolby Digital
Codec ID : A_AC3
Duration : 1 h 44 min
Bit rate mode : Constant
Bit rate : 192 kb/s
Channel(s) : 2 channels
Channel layout : L R
Sampling rate : 48.0 kHz
Frame rate : 31.250 FPS (1536 SPF)
Bit depth : 16 bits
Compression mode : Lossy
Stream size : 144 MiB (0%)
Title : MVO [ІНТЕР] 2.0
Language : Ukrainian
Service kind : Complete Main
Default : Yes
Forced : Yes

Audio #2
ID : 3
Format : PCM
Format settings : Little / Signed
Codec ID : A_PCM/INT/LIT
Duration : 1 h 44 min
Bit rate mode : Constant
Bit rate : 2 304 kb/s
Channel(s) : 2 channels
Sampling rate : 48.0 kHz
Frame rate : 200.000 FPS (240 SPF)
Bit depth : 24 bits
Stream size : 1.69 GiB (6%)
Title : Original LPCM 2.0
Language : Italian
Default : No
Forced : No

Text
ID : 4
Format :
Codec ID : S_TEXT/
Codec ID/Info : Advanced Sub Station Alpha
Duration : 1 h 43 min
Bit rate : 60 b/s
Count of elements : 781
Compression mode : Lossless
Stream size : 46.4 KiB (0%)
Title : Ita (Colored)
Language : Italian
Default : No
Forced : No
Скріншоти
Джерело: &
Подяка за запис звуку п. xSlim, синхронізація п. Anonymous
Особиста оцінка: 10 - без зайвих вагань рекомендую всім!


Золотий реліз (завантажене не впливає на рейтинг)
 Трекер:    Зареєстрований   

Завантажити / скачати фільм українською



відео для новачків



 Зареєстрований:   2019-11-14 00:22
 Розмір:   28.9 GB 
 Оцінка фільму:   10/10 (Голосів: 6)
   
Інші релізи
   Буркотун / Il burbero (1986) 1080p [Remastered] Ukr/Ita | Sub Ita MakRA  5 / 0   12.25 GB   2019-11-14 08:37 
   Буркотун / Il burbero (1986) drop_plz  6 / 0   1.41 GB   2017-04-08 06:34 
Ваш часовий пояс: GMT + 2 Години

Нова тема   Відповісти