Герой мого часу / Hero of My Time (2018) 720p

Нові коментарі

Нова тема   Відповісти
Автор Повідомлення
7andrii 
Новенький


З нами з: 05.06.16
Востаннє: 07.03.21
Повідомлень: 9

2019-11-14 00:12  
Герой мого часу / Hero of My Time (2018) 720p

Герой мого часу / Hero of My Time (2018) 720p


Жанр: драма, комедія
Країна: Україна

Кінокомпанія: Creative Boutique Films
Режисер: Тоня Ноябрьова
Актори: Євген Бушмакін, Олег Шевцов, Василіса Фролова, Соня Забуга, Олена Курта, Наталка Якимович, Марина Шевченко

Сюжет:
Щороку з глибинки у великі міста в пошуках щастя і кращого життя перебираються тисячі, а то й мільйони людей. Ці "маленькі люди" хочуть підкорювати велике, стати важливою частиною величезного механізму. Ось так і Жорик приїхав зі своєї дірки до Києва, щоб знайти сенс свого життєвого призначення саме у столиці. У його планах елітні заклади, європейські цінності та культурні заходи, але поки що доводиться жити серед брудних під'їздів, ліфтів, які не працюють, убогих каруселей, дешевих дівок і моря пивасика. Із цього прокляття треба вибиратися сто відсотків. Жорик шукає роботу, щоб жити постійно серед прекрасного, намагається постійно бути серед дорогих речей. Але найважче – побудувати відносини, адже йому дуже сподобалася одна дівчина із заможної сім'ї. Поки Жорик не подолає цю грань між соціальними статусами – нічого не вийде.


Тривалість: 01:17:03
Якість:
Відео:
кодек:
розмір кадру: 1280 х 720
бітрейт: 2500 кб/с

Аудіо:
мова: українська
переклад: оригінал
кодек: 2.0
бітрейт: 191 кб/с
Звіт Info
General
Complete name : C:\Users\and777\Downloads\Герой мого часу 2018.mp4
Format : MPEG-4
Format profile : Base Media / Version 2
Codec ID : mp42 (isom/iso2/avc1/mp41)
File size : 1.45 GiB
Duration : 1 h 17 min
Overall bit rate : 2 695 kb/s
Writing application : HandBrake rev0 2014100499
Video #1
ID : 1
Format : AVC
Format/Info : Advanced Video Codec
Format profile : [email protected]
Format settings : CABAC / 4 Ref Frames
Format settings, CABAC : Yes
Format settings, ReFrames : 4 frames
Codec ID : avc1
Codec ID/Info : Advanced Video Coding
Duration : 1 h 17 min
Bit rate : 2 500 kb/s
Width : 1 280 pixels
Height : 720 pixels
Display aspect ratio : 16:9
Frame rate mode : Constant
Frame rate : 25.000 FPS
Color space : YUV
Chroma subsampling : 4:2:0
Bit depth : 8 bits
Scan type : Progressive
Bits/(Pixel*Frame) : 0.109
Stream size : 1.35 GiB (93%)
Writing library : core 142 r2431 a5831aa
Encoding settings : cabac=1 / ref=3 / deblock=0:-1:-1 / analyse=0x1:0x111 / me=hex / subme=7 / psy=1 / psy_rd=1.00:0.15 / mixed_ref=1 / me_range=16 / chroma_me=1 / trellis=1 / 8x8dct=0 / cqm=0 / deadzone=21,11 / fast_pskip=1 / chroma_qp_offset=-3 / threads=32 / lookahead_threads=5 / sliced_threads=0 / nr=0 / decimate=1 / interlaced=0 / bluray_compat=0 / constrained_intra=0 / bframes=3 / b_pyramid=2 / b_adapt=1 / b_bias=0 / direct=1 / weightb=1 / open_gop=0 / weightp=2 / keyint=250 / keyint_min=25 / scenecut=40 / intra_refresh=0 / rc_lookahead=40 / rc=2pass / mbtree=1 / bitrate=2500 / ratetol=1.0 / qcomp=0.60 / qpmin=0 / qpmax=69 / qpstep=4 / cplxblur=20.0 / qblur=0.5 / vbv_maxrate=20000 / vbv_bufsize=25000 / nal_hrd=none / filler=0 / ip_ratio=1.40 / aq=1:1.00
Color range : Limited
Color primaries : BT.709
Transfer characteristics : BT.709
Matrix coefficients : BT.709
Audio #2
ID : 2
Format :
Format/Info : Advanced Audio Codec
Format profile : LC
Codec ID : mp4a-40-2
Duration : 1 h 17 min
Bit rate mode : Constant
Bit rate : 192 kb/s
Channel(s) : 2 channels
Channel positions : Front: L R
Sampling rate : 48.0 kHz
Frame rate : 46.875 FPS (1024 SPF)
Compression mode : Lossy
Stream size : 106 MiB (7%)
Title : Stereo / Stereo
Language : Ukrainian
Default : Yes
Alternate group : 1
Скріншоти







Золотий реліз (завантажене не впливає на рейтинг)
 Трекер:    Зареєстрований   

Завантажити / скачати український фільм



відео для новачків



 Зареєстрований:   2019-11-14 00:12
 Розмір:   1.45 GB 
 Оцінка фільму:   7.6/10 (Голосів: 14)
 Герой мого часу (2018) WEB-DL (720p)
   
Інші релізи
   Герой мого часу / Hero of My Time (2018) AVC 11FrYkT  3 / 1   1.09 GB   2021-03-07 19:23 
   Герой мого часу / Hero of My Time (2018) igor911  19 / 0   1.35 GB   2018-12-05 16:06 
   Герой мого часу / Hero of My Time (2018) 1080p Electroz  26 / 0   3.28 GB   2018-12-04 23:45 
igor911 
Модератор відео


З нами з: 18.01.08
Востаннє: 07.03.21
Повідомлень: 15632

2019-11-14 08:15  
Скріншоти чомусь різного розміру і не відповідають вказаному 1280х720. Треба замінити на оригінального розміру.
підказка як
alt+i для MPC-HC
ctrl+e для PotPlayer
ctrl+e для KMPlayer
shift+s для VLC
ctrl+g для GOM Player
s дляSMPlayer
c для Splash Pro

зберігати у форматі png

dihor 
Свій


З нами з: 06.04.11
Востаннє: 21.02.21
Повідомлень: 56

2020-12-24 18:18  
Дякуємо!
Ваш часовий пояс: GMT + 2 Години

Нова тема   Відповісти