Angry Birds у кіно 2 / The Angry Birds Movie 2 (2019) UHD Remux 4K 2160p Ukr/Eng | Sub Ukr/Eng

Нові коментарі

Нова тема   Відповісти
Автор Повідомлення
Anonymous 







2019-11-13 16:01  
Angry Birds у кіно 2 / The Angry Birds Movie 2 (2019) UHD Remux 4K 2160p Ukr/Eng | Sub Ukr/Eng

Angry Birds у кіно 2 / The Angry Birds Movie 2 (2019) UHD Remux 4K 2160p Ukr/Eng | Sub Ukr/Eng
Усі українські постери:


















«Цього літа настає зима»


Жанр: комедія, мультфільм, пригодницький, сімейний
Країна: США, Фінляндія



Кінокомпанія: Sony Pictures Animation, Rovio Entertainment
Режисер: Туроп Ван Орман
Актори: Джейсон Судейкіс, Джош Гад, Леслі Джонс, Білл Хейдер, Рейчел Блум, Аквафіна, Стерлінг К. Браун, Еухеніо Дербес, Тіффані Хеддіш, Денні МакБрайд

Сюжет:
Коли на горизонті з'являється нова загроза, яка несе небезпеку і для острова пташок, і для острова свинок, Ред, Чак, Бомб і Могутній орел вербують сестру Чака Сільвер і об'єднуються зі свинями Леонардом, його асистенткою Кортні і вченим Геррі, щоб укласти хитке перемир'я заради порятунку свого дому.


Тривалість: 01:36:47
Якість: UHD Remux 4K 2160p

Відео:
кодек: H.265 (HEVC)
розмір кадру: 3840x2160
бітрейт: 49700 кб/с
бітова глибина: 10 біт
кольоровий простір: BT.2020 (HDR)

Аудіо # 1:
мова: українська
переклад: професійний дубльований | студія LeDoyen
кодек: 2.0
бітрейт: 192 кб/с
Інформація про дубляж:

Ред - Дмитро Бузинський
Сріблинка - Антоніна Хижняк
Чак - Євген Кошовий
Бомб - Юрій Крапов
Леонард - Богдан Бенюк
Ґлен - Володимир Ніколаєнко
Зета - Катерина Башкіна-Зленко
Могутній Орел - Андрій Твердак
Фуксія - Соня Плакидюк
Матильда - Олена Кравець
та інші.

Фільм дубльовано студією LeDoyen на замовлення компанії B&H Film Distribution у 2019 році.
Аудіо # 2:
мова: англійська
переклад: оригінал
кодек: -HD MA 7.1
бітрейт: 5328 кб/с

Субтитри: (Full)
мова: українська
тип: програмні (м'які)
формат: *.pgs

Субтитри: (Full, SDH)
мова: англійська
тип: програмні (м'які)
формат: *.pgs
Info
Код:
General
Complete name                            : The Angry Birds Movie 2 (2019) UHD Remux 4K 2160p (Ukr_Eng).
Format                                   :
Format version                           : Version 4
File size                                : 37.4 GiB
Duration                                 : 1 h 36 min
Overall bit rate mode                    : Variable
Overall bit rate                         : 55.3 Mb/s
Encoded date                             : UTC 2019-11-13 14:12:12
Writing application                      : v30.1.0 ('Forever And More') 64-bit
Writing library                          : libebml v1.3.6 + v1.4.9
Cover                                    : Yes
Attachments                              : cover.jpg

Video
ID                                       : 1
Format                                   : HEVC
Format/Info                              : High Efficiency Video Coding
Commercial name                          : HDR10
Format profile                           : Main [email protected]@High
Codec ID                                 : V_MPEGH/ISO/HEVC
Duration                                 : 1 h 36 min
Bit rate                                 : 49.7 Mb/s
Width                                    : 3 840 pixels
Height                                   : 2 160 pixels
Display aspect ratio                     : 16:9
Frame rate mode                          : Constant
Frame rate                               : 23.976 (24000/1001) FPS
Color space                              : YUV
Chroma subsampling                       : 4:2:0 (Type 2)
Bit depth                                : 10 bits
Bits/(Pixel*Frame)                       : 0.250
Stream size                              : 33.6 GiB (90%)
Default                                  : Yes
Forced                                   : No
Color range                              : Limited
Color primaries                          : BT.2020
Transfer characteristics                 : PQ
Matrix coefficients                      : BT.2020 non-constant
Mastering display color primaries        : Display P3
Mastering display luminance              : min: 0.0050 cd/m2, max: 4000 cd/m2
Maximum Content Light Level              : 1001 cd/m2
Maximum Frame-Average Light Level        : 640 cd/m2

Audio #1
ID                                       : 2
Format                                   : AC-3
Format/Info                              : Audio Coding 3
Commercial name                          : Dolby Digital
Codec ID                                 : A_AC3
Duration                                 : 1 h 36 min
Bit rate mode                            : Constant
Bit rate                                 : 192 kb/s
Channel(s)                               : 2 channels
Channel layout                           : L R
Sampling rate                            : 48.0 kHz
Frame rate                               : 31.250 FPS (1536 SPF)
Bit depth                                : 16 bits
Compression mode                         : Lossy
Stream size                              : 133 MiB (0%)
Title                                    : 2.0 | 192 кб/с
Language                                 : Ukrainian
Service kind                             : Complete Main
Default                                  : Yes
Forced                                   : No

Audio #2
ID                                       : 3
Format                                   : XLL
Format/Info                              : Digital Theater Systems
Commercial name                          : -HD Master Audio
Codec ID                                 : A_DTS
Duration                                 : 1 h 36 min
Bit rate mode                            : Variable
Bit rate                                 : 5 328 kb/s
Channel(s)                               : 8 channels
Channel layout                           : C L R LFE Lb Rb Lss Rss
Sampling rate                            : 48.0 kHz
Frame rate                               : 93.750 FPS (512 SPF)
Bit depth                                : 24 bits
Compression mode                         : Lossless
Stream size                              : 3.60 GiB (10%)
Title                                    : -HD Master Audio 7.1 | 5328 кб/с
Language                                 : English
Default                                  : No
Forced                                   : No

Text #1
ID                                       : 4
Format                                   : PGS
Muxing mode                              : zlib
Codec ID                                 : S_HDMV/PGS
Codec ID/Info                            : Picture based subtitle format used on BDs/HD-DVDs
Duration                                 : 1 h 36 min
Bit rate                                 : 38.2 kb/s
Count of elements                        : 2746
Stream size                              : 26.2 MiB (0%)
Title                                    : Full
Language                                 : Ukrainian
Default                                  : Yes
Forced                                   : No

Text #2
ID                                       : 5
Format                                   : PGS
Muxing mode                              : zlib
Codec ID                                 : S_HDMV/PGS
Codec ID/Info                            : Picture based subtitle format used on BDs/HD-DVDs
Duration                                 : 1 h 34 min
Bit rate                                 : 48.6 kb/s
Count of elements                        : 3518
Stream size                              : 32.9 MiB (0%)
Title                                    : Full
Language                                 : English
Default                                  : No
Forced                                   : No

Text #3
ID                                       : 6
Format                                   : PGS
Muxing mode                              : zlib
Codec ID                                 : S_HDMV/PGS
Codec ID/Info                            : Picture based subtitle format used on BDs/HD-DVDs
Duration                                 : 1 h 27 min
Bit rate                                 : 40.8 kb/s
Count of elements                        : 2646
Stream size                              : 25.5 MiB (0%)
Title                                    : SDH
Language                                 : English
Default                                  : No
Forced                                   : No
Скріншоти

Джерело: &
Особиста оцінка: 0 - не дивився
Увага! Перед завантаженням переконайтесь, що ваш пристрій відтворення (та/або ПЗ) підтримує H.265 (HEVC)


Золотий реліз (завантажене не впливає на рейтинг)
 Трекер:    Зареєстрований   

Завантажити / скачати мультфільм українською



відео для новачків



 Зареєстрований:   2019-11-13 18:08
 Розмір:   37.41 GB 
 Оцінка мультфільму:   9.5/10 (Голосів: 6)
   
KiLLERok 
Новенький


З нами з: 28.11.10
Востаннє: 12.02.20
Повідомлень: 2

2019-12-04 20:07  
Варто до загальної назви роздачі додати "HDR"
Ваш часовий пояс: GMT + 2 Години

Нова тема   Відповісти