Після весілля / After the Wedding (2019) 1080p Ukr/Eng | Sub Eng

Нові коментарі

Нова тема   Відповісти
Автор Повідомлення
Anonymous 







2019-11-13 14:29  
Після весілля / After the Wedding (2019) 1080p Ukr/Eng | Sub Eng

Після весілля / After the Wedding (2019) 1080p Ukr/Eng | Sub Eng


Жанр: драма
Країна: США





Кінокомпанія: Ingenious Media, Joel B. Michaels Productions, Riverstone Pictures
Режисер: Барт Фрейндліх / Bart Freundlich
Актори: Мішель Вільямс, Джуліанна Мур, Біллі Крудап, Вілл Чейз, Еббі Квінн Джекман, С'юзен Блекуелл

Сюжет:
Менеджер дитячого будинку Ізабель в місті Колката їде до Нью-Йорка, щоб зустріти благодійника - жінку, що керує мільойнною корпорацією та хоче пожертвувати велику суму на доброчинність. Ізабель ще не знає, на що обернеться це знайомство.


Тривалість: 01:52:07
Якість: 1080p
Відео:
кодек:
розмір кадру: 1920x804
бітрейт: ~9996 кб/с

Аудіо # 1:
мова: українська
переклад: професійний дубльований
кодек: 5.1
бітрейт: 384 кб/с

Аудіо # 2:
мова: українська
переклад: професійний дубльований
кодек: 2.0
бітрейт: 192 кб/с

Аудіо # 2:
мова: англійська
переклад: оригінал
кодек: E- 5.1
бітрейт: 1024 кб/с

Субтитри: (Full, SDH)
мова: англійська
тип: програмні (м'які)
формат: *.srt

Збережено оригінальні розділи, як на Blu-ray.
Info
Код:
General
Complete name                            : After the Wedding (2019) 1080p [UKR_ENG].
Format                                   :
Format version                           : Version 4
File size                                : 8.78 GiB
Duration                                 : 1 h 52 min
Overall bit rate                         : 11.2 Mb/s
Encoded date                             : UTC 2019-11-13 12:21:40
Writing application                      : v30.1.0 ('Forever And More') 64-bit
Writing library                          : libebml v1.3.6 + v1.4.9
Cover                                    : Yes
Attachments                              : cover.jpg

Video
ID                                       : 1
Format                                   : AVC
Format/Info                              : Advanced Video Codec
Format profile                           : [email protected]
Format settings                          : CABAC / 5 Ref Frames
Format settings, CABAC                   : Yes
Format settings, RefFrames               : 5 frames
Codec ID                                 : V_MPEG4/ISO/AVC
Duration                                 : 1 h 52 min
Bit rate                                 : 10 000 kb/s
Width                                    : 1 920 pixels
Height                                   : 804 pixels
Display aspect ratio                     : 2.40:1
Frame rate mode                          : Constant
Frame rate                               : 23.976 (24000/1001) FPS
Color space                              : YUV
Chroma subsampling                       : 4:2:0
Bit depth                                : 8 bits
Scan type                                : Progressive
Bits/(Pixel*Frame)                       : 0.270
Stream size                              : 7.83 GiB (89%)
Writing library                          : core 152 r2851kMod ba24899
Encoding settings                        : cabac=1 / ref=5 / deblock=1:-3:-3 / analyse=0x3:0x133 / me=umh / subme=10 / psy=1 / fade_compensate=0.00 / psy_rd=1.00:0.00 / mixed_ref=1 / me_range=32 / chroma_me=1 / trellis=2 / 8x8dct=1 / cqm=0 / deadzone=21,11 / fast_pskip=0 / chroma_qp_offset=-2 / threads=12 / lookahead_threads=2 / sliced_threads=0 / nr=0 / decimate=1 / interlaced=0 / bluray_compat=0 / constrained_intra=0 / bframes=8 / b_pyramid=2 / b_adapt=2 / b_bias=0 / direct=3 / weightb=1 / open_gop=0 / weightp=2 / keyint=250 / keyint_min=23 / scenecut=40 / intra_refresh=0 / rc=2pass / mbtree=0 / bitrate=10000 / ratetol=1.0 / qcomp=0.63 / qpmin=0 / qpmax=69 / qpstep=4 / cplxblur=20.0 / qblur=0.5 / ip_ratio=1.30 / pb_ratio=1.20 / aq=3:0.70 / zones=241,820,b=1.3/9669,11631,b=1.3/15543,19833,b=1.3/54250,60355,b=1.3/76809,82144,b=1.3/88285,91287,b=1.3/120385,124185,b=1.3/131363,142753,b=1.3
Language                                 : English
Default                                  : Yes
Forced                                   : No
Color range                              : Limited
Matrix coefficients                      : BT.709

Audio #1
ID                                       : 2
Format                                   : AC-3
Format/Info                              : Audio Coding 3
Commercial name                          : Dolby Digital
Codec ID                                 : A_AC3
Duration                                 : 1 h 51 min
Bit rate mode                            : Constant
Bit rate                                 : 192 kb/s
Channel(s)                               : 2 channels
Channel layout                           : L R
Sampling rate                            : 48.0 kHz
Frame rate                               : 31.250 FPS (1536 SPF)
Bit depth                                : 16 bits
Compression mode                         : Lossy
Stream size                              : 154 MiB (2%)
Title                                    : , 2/0 (L,R) ch, ~192 kbps
Language                                 : Ukrainian
Service kind                             : Complete Main
Default                                  : Yes
Forced                                   : No

Audio #2
ID                                       : 3
Format                                   : E-AC-3
Format/Info                              : Enhanced AC-3
Commercial name                          : Dolby Digital Plus
Codec ID                                 : A_EAC3
Duration                                 : 1 h 52 min
Bit rate mode                            : Constant
Bit rate                                 : 1 024 kb/s
Channel(s)                               : 6 channels
Channel layout                           : L R C LFE Ls Rs
Sampling rate                            : 48.0 kHz
Frame rate                               : 31.250 FPS (1536 SPF)
Compression mode                         : Lossy
Stream size                              : 821 MiB (9%)
Title                                    : E-AC-3, 5.1 ch, ~1024 kbps
Language                                 : English
Service kind                             : Complete Main
Default                                  : No
Forced                                   : No

Text #1
ID                                       : 4
Format                                   : UTF-8
Codec ID                                 : S_TEXT/UTF8
Codec ID/Info                            : UTF-8 Plain Text
Duration                                 : 1 h 44 min
Bit rate                                 : 58 b/s
Count of elements                        : 1287
Stream size                              : 44.7 KiB (0%)
Title                                    : Full
Language                                 : English
Default                                  : No
Forced                                   : No

Text #2
ID                                       : 5
Format                                   : UTF-8
Codec ID                                 : S_TEXT/UTF8
Codec ID/Info                            : UTF-8 Plain Text
Duration                                 : 1 h 44 min
Bit rate                                 : 58 b/s
Count of elements                        : 1287
Stream size                              : 44.7 KiB (0%)
Title                                    : SDH
Language                                 : English
Default                                  : No
Forced                                   : No

Menu
00:00:00.000                             : :Chapter 01
00:08:05.026                             : :Chapter 02
00:15:13.996                             : :Chapter 03
00:22:06.992                             : :Chapter 04
00:30:10.642                             : :Chapter 05
00:38:53.581                             : :Chapter 06
00:47:39.690                             : :Chapter 07
00:53:23.074                             : :Chapter 08
01:01:21.219                             : :Chapter 09
01:03:27.011                             : :Chapter 10
01:08:04.497                             : :Chapter 11
01:13:56.056                             : :Chapter 12
01:17:27.517                             : :Chapter 13
01:23:40.306                             : :Chapter 14
01:31:48.461                             : :Chapter 15
01:38:51.967                             : :Chapter 16
Скріншоти


Джерело:
Особиста оцінка: 0 - не дивився


 Трекер:    Зареєстрований   

Завантажити / скачати фільм українською



відео для новачків



 Зареєстрований:   2019-12-07 14:13
 Розмір:   9.08 GB 
 Оцінка фільму:   8.6/10 (Голосів: 10)
   
Інші релізи
0mage0 
VIP


З нами з: 06.10.15
Востаннє: 23.01.20
Повідомлень: 615

2019-11-15 22:18  
Дивитися можна. Чиста драма й не зовсім зрозумілий кінець фільму.
В перекладі, як завжди, лажанули. "Попередити хвороби"... це як, ало, хвороби, попереджаємо, не приходьте до нас!

Alex-doctor 
Новенький


З нами з: 17.02.13
Востаннє: 23.01.20
Повідомлень: 20

2019-11-17 21:19  
фільм заслуговує на увагу...
-VJ- 
VIP


З нами з: 01.11.09
Востаннє: 23.01.20
Повідомлень: 735

2019-11-27 11:42  
Вже не вперше голлівудський рімейк значно гірший за оригінал
В цьому випадку данський фільм з Мікельсеном на дві голови кращий за те, що з нього зробила Джуліана Мур..

Anonymous 







2019-12-07 14:14  
Торент файл оновлено. Додав 5.1 / 384 кб/с
Ваш часовий пояс: GMT + 2 Години

Нова тема   Відповісти