Диявол / Devil (2010) 720p 2xUkr/Eng | Sub Ukr/Eng

Нові коментарі

Нова тема   Відповісти
Останній раз роздавалося NSCOriginal (2020-09-21)
Автор Повідомлення
Anonymous 







2019-11-13 15:09  
Диявол / Devil (2010) 720p 2xUkr/Eng | Sub Ukr/Eng

Диявол / Devil (2010) 720p 2xUkr/Eng | Sub Ukr/Eng


Жанр: жахи, містика, трилер
Країна: США



Кінокомпанія: Media Rights Capital, Night Chronicles, Relativity Media
Режисер: Джон Ерік Дадл
Актори: Джеффрі Аренд, Лоґан Маршалл-Ґрін, Кріс Мессіна, Бояна Новакович, Каролін Давернас, Джейкоб Варґас, Букем Вудбайн, Метт Кревен, Джошуа Піс та інші

Сюжет:
Кілька людей, які опинилися в застряглому ліфті, з часом розуміють, що серед них присутній сам диявол...


Тривалість: 01:20:28
Якість: 720p
Відео:
кодек:
розмір кадру: 1280x534
бітрейт: 6026 кб/с

Аудіо # 1:
мова: українська
переклад: багатоголосий закадровий
кодек: 2.0
бітрейт: 192 кб/с
Інформація про озвучення:
Аудіо # 2:
мова: українська
переклад: багатоголосий закадровий
кодек: 2.0
бітрейт: 192 кб/с
Інформація про озвучення:
Ролі озвучували: Роман Семисал, Євген Пашин, один чоловічий та один жіночий
Аудіо # 3:
мова: англійська
переклад: оригінал
кодек: 5.1
бітрейт: 640 кб/с

Субтитри: (Forced, Full)
мова: українська
тип: програмні (м'які)
формат: *.srt

Субтитри: (Full)
мова: англійська
тип: програмні (м'які)
формат: *.srt

Величезні подяки:
1 доріжка і джерело відео - запис - xslim, Sando7, ratbol, зведення - patriot2305
2 доріжка - запис - Sando7 , зведення - -_-В_E_N_D_E_R-_-
За витягнення сабів і за допомогу - -_-В_E_N_D_E_R-_-, antik_2008, igor911, krigg070.

Збережено оригінальні розділи, як на Blu-ray.
Info
Код:
General
Complete name                            : Devil (2010) 720p [ukr,eng] [ViDeO_Hurtom].
Format                                   :
Format version                           : Version 4
File size                                : 3.95 GiB
Duration                                 : 1 h 20 min
Overall bit rate                         : 7 031 kb/s
Encoded date                             : UTC 2019-11-13 12:00:07
Writing application                      : v30.1.0 ('Forever And More') 64-bit
Writing library                          : libebml v1.3.6 + v1.4.9
Cover                                    : Yes
Attachments                              : cover.jpg

Video
ID                                       : 1
Format                                   : AVC
Format/Info                              : Advanced Video Codec
Format profile                           : [email protected]
Format settings                          : CABAC / 12 Ref Frames
Format settings, CABAC                   : Yes
Format settings, RefFrames               : 12 frames
Codec ID                                 : V_MPEG4/ISO/AVC
Duration                                 : 1 h 20 min
Bit rate                                 : 6 026 kb/s
Width                                    : 1 280 pixels
Height                                   : 534 pixels
Display aspect ratio                     : 2.40:1
Frame rate mode                          : Constant
Frame rate                               : 23.976 (24000/1001) FPS
Color space                              : YUV
Chroma subsampling                       : 4:2:0
Bit depth                                : 8 bits
Scan type                                : Progressive
Bits/(Pixel*Frame)                       : 0.368
Stream size                              : 3.38 GiB (85%)
Title                                    : potroks
Writing library                          : core 157 r2958 57baac4
Encoding settings                        : cabac=1 / ref=12 / deblock=1:-3:-3 / analyse=0x3:0x133 / me=umh / subme=11 / psy=1 / psy_rd=1.00:0.05 / mixed_ref=1 / me_range=48 / chroma_me=1 / trellis=2 / 8x8dct=1 / cqm=0 / deadzone=21,11 / fast_pskip=0 / chroma_qp_offset=-3 / threads=9 / lookahead_threads=2 / sliced_threads=0 / nr=0 / decimate=0 / interlaced=0 / bluray_compat=0 / constrained_intra=0 / bframes=10 / b_pyramid=2 / b_adapt=2 / b_bias=0 / direct=3 / weightb=1 / open_gop=0 / weightp=2 / keyint=240 / keyint_min=23 / scenecut=40 / intra_refresh=0 / rc_lookahead=100 / rc=2pass / mbtree=0 / bitrate=6026 / ratetol=1.0 / qcomp=0.70 / qpmin=0 / qpmax=69 / qpstep=4 / cplxblur=20.0 / qblur=0.5 / vbv_maxrate=50000 / vbv_bufsize=62500 / nal_hrd=none / filler=0 / ip_ratio=1.40 / pb_ratio=1.30 / aq=1:0.65
Language                                 : English
Default                                  : Yes
Forced                                   : No

Audio #1
ID                                       : 2
Format                                   : AC-3
Format/Info                              : Audio Coding 3
Commercial name                          : Dolby Digital
Codec ID                                 : A_AC3
Duration                                 : 1 h 20 min
Bit rate mode                            : Constant
Bit rate                                 : 192 kb/s
Channel(s)                               : 2 channels
Channel layout                           : L R
Sampling rate                            : 48.0 kHz
Frame rate                               : 31.250 FPS (1536 SPF)
Bit depth                                : 16 bits
Compression mode                         : Lossy
Stream size                              : 111 MiB (3%)
Title                                    : MVO | DD 2.0 @ 192 kbps - NLO.TV
Language                                 : Ukrainian
Service kind                             : Complete Main
Default                                  : Yes
Forced                                   : No

Audio #2
ID                                       : 3
Format                                   : AC-3
Format/Info                              : Audio Coding 3
Commercial name                          : Dolby Digital
Codec ID                                 : A_AC3
Duration                                 : 1 h 20 min
Bit rate mode                            : Constant
Bit rate                                 : 192 kb/s
Channel(s)                               : 2 channels
Channel layout                           : L R
Sampling rate                            : 48.0 kHz
Frame rate                               : 31.250 FPS (1536 SPF)
Bit depth                                : 16 bits
Compression mode                         : Lossy
Stream size                              : 111 MiB (3%)
Title                                    : MVO | DD 2.0 @ 192 kbps - CINE
Language                                 : Ukrainian
Service kind                             : Complete Main
Default                                  : No
Forced                                   : No

Audio #3
ID                                       : 4
Format                                   : AC-3
Format/Info                              : Audio Coding 3
Commercial name                          : Dolby Digital
Codec ID                                 : A_AC3
Duration                                 : 1 h 20 min
Bit rate mode                            : Constant
Bit rate                                 : 640 kb/s
Channel(s)                               : 6 channels
Channel layout                           : L R C LFE Ls Rs
Sampling rate                            : 48.0 kHz
Frame rate                               : 31.250 FPS (1536 SPF)
Bit depth                                : 16 bits
Compression mode                         : Lossy
Stream size                              : 368 MiB (9%)
Title                                    : Original | DD 5.1 @ 640 kbps
Language                                 : English
Service kind                             : Complete Main
Default                                  : No
Forced                                   : No

Text #1
ID                                       : 5
Format                                   : UTF-8
Codec ID                                 : S_TEXT/UTF8
Codec ID/Info                            : UTF-8 Plain Text
Duration                                 : 1 h 19 min
Bit rate                                 : 0 b/s
Count of elements                        : 11
Stream size                              : 424 Bytes (0%)
Title                                    : Forced
Language                                 : Ukrainian
Default                                  : Yes
Forced                                   : No

Text #2
ID                                       : 6
Format                                   : UTF-8
Codec ID                                 : S_TEXT/UTF8
Codec ID/Info                            : UTF-8 Plain Text
Duration                                 : 1 h 14 min
Bit rate                                 : 89 b/s
Count of elements                        : 891
Stream size                              : 48.9 KiB (0%)
Title                                    : Full
Language                                 : Ukrainian
Default                                  : No
Forced                                   : No

Text #3
ID                                       : 7
Format                                   : UTF-8
Codec ID                                 : S_TEXT/UTF8
Codec ID/Info                            : UTF-8 Plain Text
Duration                                 : 1 h 14 min
Bit rate                                 : 57 b/s
Count of elements                        : 1021
Stream size                              : 31.3 KiB (0%)
Title                                    : Full
Language                                 : English
Default                                  : No
Forced                                   : No

Menu
00:00:00.000                             : en:Chapter 01
00:04:10.750                             : en:Chapter 02
00:07:00.628                             : en:Chapter 03
00:10:07.523                             : en:Chapter 04
00:14:37.585                             : en:Chapter 05
00:18:17.387                             : en:Chapter 06
00:21:09.226                             : en:Chapter 07
00:25:28.610                             : en:Chapter 08
00:30:11.184                             : en:Chapter 09
00:34:42.705                             : en:Chapter 10
00:37:10.436                             : en:Chapter 11
00:41:31.488                             : en:Chapter 12
00:45:33.856                             : en:Chapter 13
00:49:19.831                             : en:Chapter 14
00:53:40.133                             : en:Chapter 15
00:57:36.911                             : en:Chapter 16
01:02:01.342                             : en:Chapter 17
01:06:31.946                             : en:Chapter 18
01:13:40.874                             : en:Chapter 19
01:15:47.709                             : en:Chapter 20
Скріншоти




Джерело: &
Особиста оцінка: 10 - без зайвих вагань рекомендую всім!


 Трекер:    Зареєстрований   

Завантажити / скачати фільм українською



відео для новачків



 Зареєстрований:   2019-11-13 16:32
 Розмір:   3.95 GB 
 Оцінка фільму:   10/10 (Голосів: 7)
   
Інші релізи
   Диявол / Devil (2010) 1080p H.265 2xUkr/Eng | Sub Ukr/Eng -Star-Lord-  2 / 0   2.68 GB   2018-12-02 00:48 
   Диявол / Devil (2010) 1080p 2xUkr/Eng | Sub Ukr/Eng staf777  2 / 0   6.73 GB   2018-10-09 10:42 
   Диявол / Devil (2010) AVC 2xUkr/Eng | Sub Ukr/Eng staf777  3 / 0   1.56 GB   2018-10-09 09:25 
   Диявол / Devil (2010) 2xUkr/Eng | Sub Ukr/Eng 21jumpstreet  2 / 0   1.46 GB   2018-04-28 19:16 
   Диявол / Devil (2010) Remux 1080p Ukr/Eng | Sub Eng famous37  4 / 0   16.41 GB   2016-02-16 22:52 
   Диявол / Devil (2010) Eng | Sub Ukr antik_2008  0 / 0   1.16 GB   2011-03-11 02:00 
DoctorLife 
Свій


З нами з: 19.04.10
Востаннє: 20.09.20
Повідомлень: 55

2019-11-19 00:54  
Феєрична маячня.
Ваш часовий пояс: GMT + 2 Години

Нова тема   Відповісти