Пан Робот / Містер Робот (Сезон 4, Серії 1-9) / Mr. Robot (Season 4, Episodes 1-9) (2019) 1080p Ukr/Eng

Нові коментарі

Нова тема   Відповісти
Автор Повідомлення
simpsonsua 
Поважний учасник


З нами з: 13.03.18
Востаннє: 09.12.19
Повідомлень: 182

2019-11-13 00:18  
Перший сезон: | AVC | 1080p
Другий сезон: | AVC | 1080p
Третій сезон: | AVC | 1080p
Четвертий сезон: AVC | 1080p

Пан Робот / Містер Робот (Сезон 4, Серії 1-9) / Mr. Robot (Season 4, Episodes 1-9) (2019) 1080p Ukr/Eng

Пан Робот / Містер Робот (Сезон 4, Серії 1-9) / Mr. Robot (Season 4, Episodes 1-9) (2019) 1080p Ukr/Eng


Жанр: кримінальний, драма, трилер
Країна: США



Кінокомпанія / телеканал: Universal Cable Productions / USA Network
Режисери/творці: Сем Есмейл
Актори: Рамі Малек, Карлі Чайкін, Порша Даблдей, Мартін Вальстрьом, Крістіан Слейтер, Стефані Карнілюсен та інші.

Сюжет:
Пан Робот – це психологічний трилер про Еліота, молодого програміста, який вдень працює інженером з кібер-безпеки, а вночі – *гакером-месником. Еліот виявляється на роздоріжжі, коли таємничий лідер підпільної групи гакерів завербовує його, щоб знищити корпорацію, яка найняла його захищати її. Через особисті переконання Еліот не впевнений, що хоче покласти на лопатки керівників міжнародних конгломератів, які, на його думку, керують світом і руйнують його.


На озвучення наступних серій проходить ЗБІР КОШТІВ

Перекладено та озвучено студією сайту "simpsonsua.tv" на замовлення HURTOM.COM


Тривалість: 1 серія: ~ 50 хв. (цілком серій: 9/13)
Перелік серій:
01. 401 Unauthorized
02. 402 Payment Required
03. 403 Forbidden
04. 404 Not Found
05. 405 Method Not Allowed
06. 406 Not Acceptable
07. 407 Proxy Authentication Required
08. 408 Request Timeout
09. 409 Conflict
10. 410 Gone
11. 411 Length Required
12. Episode #4.12
13. Episode #4.13
Якість: 1080p
Відео:
кодек:
розмір кадру: 1920 x 1080
бітрейт: ~ 7500 кб/с

Аудіо # 1:
мова: українська
озвучення: професійне багатоголосе закадрове |
кодек: 5.1
бітрейт: 448 кб/с

Аудіо # 2:
мова: англійська
переклад: оригінал
кодек: E- 5.1
бітрейт: 640 кб/с
Info
Код:
Format                      :
Format version              : Version 4
File size                   : 3.71 GiB
Duration                    : 1 h 1 min
Overall bit rate mode       : Constant
Overall bit rate            : 8 718 kb/s
Encoded date                : UTC 2019-10-15 16:14:23
Writing application         : v6.8.0 ('Theme for Great Cities') 32bit built on Mar  2 2014 21:27:07
Writing library             : libebml v1.3.0 + v1.4.1

Video
ID                          : 1
Format                      : AVC
Format/Info                 : Advanced Video Codec
Format profile              : [email protected]
Format settings             : CABAC / 4 Ref Frames
Format settings, CABAC      : Yes
Format settings, Reference  : 4 frames
Codec ID                    : V_MPEG4/ISO/AVC
Duration                    : 1 h 1 min
Bit rate mode               : Constant
Bit rate                    : 7 457 kb/s
Nominal bit rate            : 10 000 kb/s
Width                       : 1 920 pixels
Height                      : 1 080 pixels
Display aspect ratio        : 16:9
Frame rate mode             : Constant
Frame rate                  : 23.976 (24000/1001) FPS
Color space                 : YUV
Chroma subsampling          : 4:2:0
Bit depth                   : 8 bits
Scan type                   : Progressive
Bits/(Pixel*Frame)          : 0.150
Stream size                 : 3.18 GiB (86%)
Default                     : Yes
Forced                      : No
Color range                 : Limited
Color primaries             : BT.709
Transfer characteristics    : BT.709
Matrix coefficients         : BT.709

Audio #1
ID                          : 2
Format                      : AC-3
Format/Info                 : Audio Coding 3
Commercial name             : Dolby Digital
Codec ID                    : A_AC3
Duration                    : 1 h 1 min
Bit rate mode               : Constant
Bit rate                    : 448 kb/s
Channel(s)                  : 6 channels
Channel layout              : L R C LFE Ls Rs
Sampling rate               : 48.0 kHz
Frame rate                  : 31.250 FPS (1536 SPF)
Bit depth                   : 16 bits
Compression mode            : Lossy
Stream size                 : 195 MiB (5%)
Title                       : Українська
Language                    : Ukrainian
Service kind                : Complete Main
Default                     : Yes
Forced                      : No

Audio #2
ID                          : 3
Format                      : E-AC-3
Format/Info                 : Enhanced AC-3
Commercial name             : Dolby Digital Plus
Codec ID                    : A_EAC3
Duration                    : 1 h 1 min
Bit rate mode               : Constant
Bit rate                    : 640 kb/s
Channel(s)                  : 6 channels
Channel layout              : L R C LFE Ls Rs
Sampling rate               : 48.0 kHz
Frame rate                  : 31.250 FPS (1536 SPF)
Compression mode            : Lossy
Stream size                 : 279 MiB (7%)
Language                    : English
Service kind                : Complete Main
Default                     : No
Forced                      : No
Скріншоти:



Джерело:


Авторський реліз (завантажувати можна без реєстрації)
 Трекер:    Зареєстрований   

Завантажити / скачати серіал українською



відео для новачків



 Зареєстрований:   2019-12-04 23:22
 Розмір:   26.68 GB 
 Оцінка серіалу:   10/10 (Голосів: 11)
 Озвучено та додано 9 серію.
   
simpsonsua 
Поважний учасник


З нами з: 13.03.18
Востаннє: 09.12.19
Повідомлень: 182

2019-11-13 00:30  
Озвучено та додано 6 серію.
7 серія орієнтовно 20 листопада.
Бажаємо всім приємного перегляду!

Gingеrbread 
Поважний учасник


З нами з: 01.07.19
Востаннє: 09.12.19
Повідомлень: 220

2019-11-13 08:23  
simpsonsua
я так розумію озвучка така ж як у релізі від цікавої ідеї?

simpsonsua 
Поважний учасник


З нами з: 13.03.18
Востаннє: 09.12.19
Повідомлень: 182

2019-11-13 12:46  
Gingеrbread
В перекладі та озвученні нічого не зміниться.

leicheman 
Відео Гуртом - фільмокрай
Відео Гуртом - фільмокрай


З нами з: 03.07.14
Востаннє: 09.12.19
Повідомлень: 4267

2019-11-13 12:56  
del
simpsonsua 
Поважний учасник


З нами з: 13.03.18
Востаннє: 09.12.19
Повідомлень: 182

2019-11-13 13:00  
leicheman
Тому що це все робимо ми, а не Цікава Ідея. Вчора озвучили серію за наші кошти, хоча на Гуртом зібрано лише на переклад. Інші студії не працюють так, а simpsonsua.tv роблять це для того, щоб ви могли подивитися серію одразу після прем'єри.

leicheman 
Відео Гуртом - фільмокрай
Відео Гуртом - фільмокрай


З нами з: 03.07.14
Востаннє: 09.12.19
Повідомлень: 4267

2019-11-13 13:04  
del
simpsonsua 
Поважний учасник


З нами з: 13.03.18
Востаннє: 09.12.19
Повідомлень: 182

2019-11-13 13:16  
leicheman
Написали у приват. Там більш детальніше пояснення.

Kostyshyn2 
Новенький


З нами з: 20.01.11
Востаннє: 07.12.19
Повідомлень: 2

2019-11-22 13:26  
simpsonsua
Вітаю. Коли чекати 7 серію?

simpsonsua 
Поважний учасник


З нами з: 13.03.18
Востаннє: 09.12.19
Повідомлень: 182

2019-11-22 13:27  
Kostyshyn2
Сьогодні буде.

simpsonsua 
Поважний учасник


З нами з: 13.03.18
Востаннє: 09.12.19
Повідомлень: 182

2019-11-22 20:39  
Виправлено 6 серію.
Озвучено та додано 7 серію.
8 серія орієнтовно 27 листопада.
Бажаємо всім приємного перегляду!

кокошнік 
Попереджень: 2
Попереджень: 2 


З нами з: 09.06.15
Востаннє: 08.12.19
Повідомлень: 2122

2019-11-22 22:46  
Оце от поворот сюжету, на новомодний манер(((
simpsonsua 
Поважний учасник


З нами з: 13.03.18
Востаннє: 09.12.19
Повідомлень: 182

2019-11-27 00:46  
Озвучено та додано 8 серію.
9 серія орієнтовно 4 грудня.
Бажаємо всім приємного перегляду!

[Captain] 
VIP


З нами з: 18.02.12
Востаннє: 07.12.19
Повідомлень: 2036

2019-12-02 21:52  
Подивився дев'яту серію.

Добро перемогло! Ну, майже...

simpsonsua 
Поважний учасник


З нами з: 13.03.18
Востаннє: 09.12.19
Повідомлень: 182

2019-12-04 23:26  
Озвучено та додано 9 серію.
10 серія орієнтовно 11 грудня.
Бажаємо всім приємного перегляду!

Ваш часовий пояс: GMT + 2 Години

Нова тема   Відповісти