Пан Робот / Містер Робот (Сезон 4, Серії 1-9) / Mr. Robot (Season 4, Episodes 1-9) (2019) AVC Ukr/Eng

Нові коментарі

Нова тема   Відповісти
Автор Повідомлення
simpsonsua 
Поважний учасник


З нами з: 13.03.18
Востаннє: 11.12.19
Повідомлень: 186

2019-11-13 00:10  
Перший сезон: | AVC | 1080p
Другий сезон: | AVC | 1080p
Третій сезон: | AVC | 1080p
Четвертий сезон: AVC | 1080p

Пан Робот / Містер Робот (Сезон 4, Серії 1-9) / Mr. Robot (Season 4, Episodes 1-9) (2019) AVC Ukr/Eng

Пан Робот / Містер Робот (Сезон 4, Серії 1-9) / Mr. Robot (Season 4, Episodes 1-9) (2019) AVC Ukr/Eng


Жанр: кримінальний, драма, трилер
Країна: США



Кінокомпанія / телеканал: Universal Cable Productions / USA Network
Режисери/творці: Сем Есмейл
Актори: Рамі Малек, Карлі Чайкін, Порша Даблдей, Мартін Вальстрьом, Крістіан Слейтер, Стефані Карнілюсен та інші.

Сюжет:
Пан Робот – це психологічний трилер про Еліота, молодого програміста, який вдень працює інженером з кібер-безпеки, а вночі – *гакером-месником. Еліот виявляється на роздоріжжі, коли таємничий лідер підпільної групи гакерів завербовує його, щоб знищити корпорацію, яка найняла його захищати її. Через особисті переконання Еліот не впевнений, що хоче покласти на лопатки керівників міжнародних конгломератів, які, на його думку, керують світом і руйнують його.


На озвучення наступних серій проходить ЗБІР КОШТІВ

Перекладено та озвучено студією сайту "simpsonsua.tv" на замовлення HURTOM.COM


Тривалість: 1 серія: ~ 50 хв. (цілком серій: 9/13)
Перелік серій:
01. 401 Unauthorized
02. 402 Payment Required
03. 403 Forbidden
04. 404 Not Found
05. 405 Method Not Allowed
06. 406 Not Acceptable
07. 407 Proxy Authentication Required
08. 408 Request Timeout
09. 409 Conflict
10. 410 Gone
11. 411 Length Required
12. Episode #4.12
13. Episode #4.13
Якість: AVC
Відео:
кодек:
розмір кадру: 720 x 400
бітрейт: ~ 1 100 кб/с

Аудіо # 1:
мова: українська
озвучення: професійне багатоголосе закадрове |
кодек: 5.1
бітрейт: 448 кб/с

Аудіо # 2:
мова: англійська
переклад: оригінал
кодек: 5.1
бітрейт: 448 кб/с
Info
Код:
Format                      :
Format version              : Version 4
File size                   : 674 MiB
Duration                    : 47 min 30 s
Overall bit rate            : 1 984 kb/s
Encoded date                : UTC 2019-10-22 00:26:44
Writing application         : v6.8.0 ('Theme for Great Cities') 32bit built on Mar  2 2014 21:27:07
Writing library             : libebml v1.3.0 + v1.4.1

Video
ID                          : 1
Format                      : AVC
Format/Info                 : Advanced Video Codec
Format profile              : [email protected]
Format settings             : CABAC / 5 Ref Frames
Format settings, CABAC      : Yes
Format settings, Reference  : 5 frames
Codec ID                    : V_MPEG4/ISO/AVC
Duration                    : 47 min 30 s
Bit rate                    : 1 048 kb/s
Width                       : 720 pixels
Height                      : 400 pixels
Display aspect ratio        : 16:9
Frame rate mode             : Constant
Frame rate                  : 23.976 (24000/1001) FPS
Color space                 : YUV
Chroma subsampling          : 4:2:0
Bit depth                   : 8 bits
Scan type                   : Progressive
Bits/(Pixel*Frame)          : 0.152
Stream size                 : 356 MiB (53%)
Language                    : English
Default                     : Yes
Forced                      : No

Audio #1
ID                          : 2
Format                      : AC-3
Format/Info                 : Audio Coding 3
Commercial name             : Dolby Digital
Codec ID                    : A_AC3
Duration                    : 47 min 30 s
Bit rate mode               : Constant
Bit rate                    : 448 kb/s
Channel(s)                  : 6 channels
Channel layout              : L R C LFE Ls Rs
Sampling rate               : 48.0 kHz
Frame rate                  : 31.250 FPS (1536 SPF)
Bit depth                   : 16 bits
Compression mode            : Lossy
Stream size                 : 152 MiB (23%)
Title                       : Українська
Language                    : Ukrainian
Service kind                : Complete Main
Default                     : Yes
Forced                      : No

Audio #2
ID                          : 3
Format                      : AC-3
Format/Info                 : Audio Coding 3
Commercial name             : Dolby Digital
Codec ID                    : A_AC3
Duration                    : 47 min 30 s
Bit rate mode               : Constant
Bit rate                    : 448 kb/s
Channel(s)                  : 6 channels
Channel layout              : L R C LFE Ls Rs
Sampling rate               : 48.0 kHz
Frame rate                  : 31.250 FPS (1536 SPF)
Bit depth                   : 16 bits
Compression mode            : Lossy
Stream size                 : 152 MiB (23%)
Language                    : English
Service kind                : Complete Main
Default                     : No
Forced                      : No
Скріншоти:



Джерело:


Авторський реліз (завантажувати можна без реєстрації)
 Трекер:    Зареєстрований   

Завантажити / скачати серіал українською



відео для новачків



 Зареєстрований:   2019-12-04 23:28
 Розмір:   6.24 GB 
 Оцінка серіалу:   9.7/10 (Голосів: 20)
 Озвучено та додано 9 серію.
   
simpsonsua 
Поважний учасник


З нами з: 13.03.18
Востаннє: 11.12.19
Повідомлень: 186

2019-11-13 00:29  
Озвучено та додано 6 серію.
7 серія орієнтовно 20 листопада.
Бажаємо всім приємного перегляду!

Wrestling Ukraine 
Частий відвідувач


З нами з: 10.09.17
Востаннє: 11.12.19
Повідомлень: 33

2019-11-14 21:38  
simpsonsua

А навіщо ж є від Цікава Ідея?

Могли б Маніфест озвучити))

simpsonsua 
Поважний учасник


З нами з: 13.03.18
Востаннє: 11.12.19
Повідомлень: 186

2019-11-14 21:41  
Wrestling Ukraine
Що саме "є"?

Wrestling Ukraine 
Частий відвідувач


З нами з: 10.09.17
Востаннє: 11.12.19
Повідомлень: 33

2019-11-14 22:12  
simpsonsua
Ну озвучка до серіалу

leicheman 
Відео Гуртом - фільмокрай
Відео Гуртом - фільмокрай


З нами з: 03.07.14
Востаннє: 11.12.19
Повідомлень: 4269

2019-11-19 13:38  
45:23 у шостій серії пропущена/ не озвучена репліка Пана Робота
simpsonsua 
Поважний учасник


З нами з: 13.03.18
Востаннє: 11.12.19
Повідомлень: 186

2019-11-19 19:07  
leicheman
Спасибі! Виправимо обов'язково.

simpsonsua 
Поважний учасник


З нами з: 13.03.18
Востаннє: 11.12.19
Повідомлень: 186

2019-11-22 20:39  
Виправлено 6 серію.
Озвучено та додано 7 серію.
8 серія орієнтовно 27 листопада.
Бажаємо всім приємного перегляду!

simpsonsua 
Поважний учасник


З нами з: 13.03.18
Востаннє: 11.12.19
Повідомлень: 186

2019-11-27 00:49  
Озвучено та додано 8 серію.
9 серія орієнтовно 4 грудня.
Бажаємо всім приємного перегляду!

simpsonsua 
Поважний учасник


З нами з: 13.03.18
Востаннє: 11.12.19
Повідомлень: 186

2019-12-04 23:29  
Озвучено та додано 9 серію.
10 серія орієнтовно 11 грудня.
Бажаємо всім приємного перегляду!

Quit_ua 
Свій


З нами з: 13.08.18
Востаннє: 10.12.19
Повідомлень: 83

2019-12-05 19:26  
4 сезон дуже крутий!!!
Ваш часовий пояс: GMT + 2 Години

Нова тема   Відповісти