Влада / Vice (2018) 1080p H.265 Ukr/Eng | Sub Eng

Нові коментарі

Нова тема   Відповісти
Автор Повідомлення
Anonymous 







2019-11-12 18:01  
Влада / Vice (2018) 1080p H.265 Ukr/Eng | Sub Eng

Влада / Vice (2018) 1080p H.265 Ukr/Eng | Sub Eng


Жанр: біографія, драма, комедія
Країна: США
Кінокомпанія: Gary Sanchez Productions, Annapurna Pictures, Plan B Entertainment
Режисер: Адам МакКей
Актори: Крістіан Бейл, Емі Адамс, Стів Карелл, Сем Роквелл, Елісон Пілл, Едді Марсан, Джастін Кірк, Ліза Ґей Гемілтон, Тайлер Перрі, Джессі Племонс

Сюжет:
Це історія одного чоловіка, який змінив цілий світ. Будучи не найпомітнішою фігурою, він зумів стати одним із найвпливовіших людей на нашій планеті. Його звуть Дік Чейні. У нього прекрасний дар переконання, відмінне ораторське мистецтво та живий, геніальний розум. Цей чоловік міг домогтися всього, чого хотів – цього і домігся, а може й більшого. Коли Президент США Джордж Буш молодший запропонував Діку посаду 46-го віце-президента країни, містер Чейні додав тільки кілька своїх умов – він уточнив, що буде під його контролем (армія, зовнішня політика, енергетика, державний апарат). Саме завдяки цьому рішенню та багатьом іншим успішним діям Дік Чейні став найуспішнішим віце-президентом США.

Тривалість: 02:12:27
Якість: (Власний Rip)

Відео:
кодек: H.265 (HEVC)
розмір кадру: 1920 x 804
бітрейт: 13 283 кб/с
бітова глибина: 10 біт

Увага! Перед завантаженням переконайтесь, що ваш пристрій відтворення (та/або ПЗ) підтримує H.265 (HEVC)

Аудіо # 1:
мова: українська
переклад: професійний дубльований
кодек: AC-3 5.1
бітрейт: 384 кб/с

Аудіо # 2:
мова: англійська
переклад: оригінал
кодек: 5.1
бітрейт: 1510 кб/с

Субтитри # 1-2: (Full, SDH)
мова: англійська
тип: програмні (м'які)
формат: *.srt


Info
Код:
General
Unique ID                                : 216067312844393341778530929889125993536 (0xA28D0CFFFC4FF2E86EB854AD1C060C40)
Complete name                            : Vice (2018) 1080p H.265 [UKR_ENG] [Hurtom].
Format                                   :
Format version                           : Version 4
File size                                : 14.0 GiB
Duration                                 : 2 h 12 min
Overall bit rate                         : 15.2 Mb/s
Movie name                               : Влада / Vice (2018)
Encoded date                             : UTC 2019-11-12 08:26:46
Writing application                      : v20.0.0 ('I Am The Sun') 64-bit
Writing library                          : libebml v1.3.5 + v1.4.8
Cover                                    : Yes
Attachments                              : cover.jpg

Video
ID                                       : 1
Format                                   : HEVC
Format/Info                              : High Efficiency Video Coding
Format profile                           : Main [email protected]@High
Codec ID                                 : V_MPEGH/ISO/HEVC
Duration                                 : 2 h 12 min
Bit rate                                 : 13.3 Mb/s
Width                                    : 1 920 pixels
Height                                   : 804 pixels
Display aspect ratio                     : 2.40:1
Frame rate mode                          : Constant
Frame rate                               : 23.976 (24000/1001) FPS
Color space                              : YUV
Chroma subsampling                       : 4:2:0
Bit depth                                : 10 bits
Bits/(Pixel*Frame)                       : 0.359
Stream size                              : 12.3 GiB (88%)
Title                                    : Влада / Vice (2018)
Writing library                          : x265 3.1+11-de920e0a3183:[Windows][clang 8.0.0][64 bit] 10bit
Encoding settings                        : cpuid=1111039 / frame-threads=9 / numa-pools=8 / wpp / no-pmode / no-pme / no-psnr / no-ssim / log-level=3 / input-csp=1 / input-res=1920x804 / interlace=0 / total-frames=0 / level-idc=51 / high-tier=1 / uhd-bd=0 / ref=5 / allow-non-conformance / no-repeat-headers / annexb / no-aud / no-hrd / info / hash=0 / no-temporal-layers / open-gop / min-keyint=24 / keyint=240 / gop-lookahead=0 / bframes=8 / b-adapt=2 / b-pyramid / bframe-bias=0 / rc-lookahead=40 / lookahead-slices=5 / scenecut=40 / radl=0 / no-splice / no-intra-refresh / ctu=64 / min-cu-size=8 / rect / amp / max-tu-size=32 / tu-inter-depth=4 / tu-intra-depth=4 / limit-tu=0 / rdoq-level=2 / dynamic-rd=0.00 / no-ssim-rd / signhide / no-tskip / nr-intra=0 / nr-inter=0 / no-constrained-intra / no-strong-intra-smoothing / max-merge=3 / limit-refs=1 / no-limit-modes / me=3 / subme=7 / merange=57 / temporal-mvp / no-hme / weightp / weightb / no-analyze-src-pics / deblock=-3:-3 / no-sao / no-sao-non-deblock / rd=6 / no-early-skip / rskip / no-fast-intra / no-tskip-fast / no-cu-lossless / b-intra / no-splitrd-skip / rdpenalty=0 / psy-rd=2.00 / psy-rdoq=1.00 / no-rd-refine / no-lossless / cbqpoffs=0 / crqpoffs=0 / rc=crf / crf=18.0 / qcomp=0.65 / qpstep=4 / stats-write=0 / stats-read=0 / vbv-maxrate=50000 / vbv-bufsize=50000 / vbv-init=0.9 / crf-max=30.0 / crf-min=0.0 / ipratio=1.40 / pbratio=1.30 / aq-mode=1 / aq-strength=1.00 / cutree / zone-count=0 / no-strict-cbr / qg-size=32 / no-rc-grain / qpmax=69 / qpmin=0 / no-const-vbv / sar=1 / overscan=0 / videoformat=5 / range=0 / colorprim=2 / transfer=2 / colormatrix=2 / chromaloc=0 / display-window=0cll=0,0 / min-luma=0 / max-luma=1023 / log2-max-poc-lsb=8 / vui-timing-info / vui-hrd-info / slices=1 / no-opt-qp-pps / no-opt-ref-list-length-pps / no-multi-pass-opt-rps / scenecut-bias=0.05 / no-opt-cu-delta-qp / no-aq-motion / no-hdr / no-hdr-opt / no-dhdr10-opt / no-idr-recovery-sei / analysis-reuse-level=5 / scale-factor=0 / refine-intra=0 / refine-inter=0 / refine-mv=0 / refine-ctu-distortion=0 / no-limit-sao / ctu-info=0 / no-lowpass-dct / refine-analysis-type=0 / copy-pic=1 / max-ausize-factor=1.0 / no-dynamic-refine / no-single-sei / no-hevc-aq / no-svt / no-field / qp-adaptation-range=1.00
Default                                  : Yes
Forced                                   : No
Color range                              : Limited

Audio #1
ID                                       : 2
Format                                   : AC-3
Format/Info                              : Audio Coding 3
Commercial name                          : Dolby Digital
Codec ID                                 : A_AC3
Duration                                 : 2 h 12 min
Bit rate mode                            : Constant
Bit rate                                 : 384 kb/s
Channel(s)                               : 6 channels
Channel layout                           : L R C LFE Ls Rs
Sampling rate                            : 48.0 kHz
Frame rate                               : 31.250 FPS (1536 SPF)
Bit depth                                : 16 bits
Compression mode                         : Lossy
Stream size                              : 364 MiB (3%)
Title                                    : / 5.1 Ch / 384 kbps / ПД / iTunes
Language                                 : Ukrainian
Service kind                             : Complete Main
Default                                  : Yes
Forced                                   : Yes

Audio #2
ID                                       : 3
Format                                   :
Format/Info                              : Digital Theater Systems
Codec ID                                 : A_DTS
Duration                                 : 2 h 12 min
Bit rate mode                            : Constant
Bit rate                                 : 1 509 kb/s
Channel(s)                               : 6 channels
Channel layout                           : C L R Ls Rs LFE
Sampling rate                            : 48.0 kHz
Frame rate                               : 93.750 FPS (512 SPF)
Bit depth                                : 24 bits
Compression mode                         : Lossy
Stream size                              : 1.40 GiB (10%)
Title                                    : / 5.1 Ch / 1509 kbps / Original
Language                                 : English
Default                                  : No
Forced                                   : No

Text #1
ID                                       : 4
Format                                   : UTF-8
Codec ID                                 : S_TEXT/UTF8
Codec ID/Info                            : UTF-8 Plain Text
Duration                                 : 2 h 4 min
Bit rate                                 : 76 b/s
Count of elements                        : 2319
Stream size                              : 70.1 KiB (0%)
Title                                    : Full
Language                                 : English
Default                                  : Yes
Forced                                   : No

Text #2
ID                                       : 5
Format                                   : UTF-8
Codec ID                                 : S_TEXT/UTF8
Codec ID/Info                            : UTF-8 Plain Text
Duration                                 : 2 h 5 min
Bit rate                                 : 84 b/s
Count of elements                        : 2504
Stream size                              : 77.8 KiB (0%)
Title                                    : SDH
Language                                 : English
Default                                  : No
Forced                                   : No

Menu
00:00:00.000                             : en:Chapter 01
00:03:05.602                             : en:Chapter 02
00:07:50.803                             : en:Chapter 03
00:13:33.979                             : en:Chapter 04
00:19:29.918                             : en:Chapter 05
00:26:39.347                             : en:Chapter 06
00:33:10.446                             : en:Chapter 07
00:37:50.851                             : en:Chapter 08
00:42:01.727                             : en:Chapter 09
00:51:35.467                             : en:Chapter 10
00:56:00.899                             : en:Chapter 11
01:00:24.203                             : en:Chapter 12
01:06:50.548                             : en:Chapter 13
01:10:11.248                             : en:Chapter 14
01:13:14.431                             : en:Chapter 15
01:17:04.077                             : en:Chapter 16
01:23:49.149                             : en:Chapter 17
01:26:43.531                             : en:Chapter 18
01:34:42.301                             : en:Chapter 19
01:39:09.860                             : en:Chapter 20
01:44:44.987                             : en:Chapter 21
01:49:41.157                             : en:Chapter 22
01:59:18.860                             : en:Chapter 23
02:02:20.207                             : en:Chapter 24
Світлини




Джерело: &
Особиста оцінка: 10 - без зайвих вагань рекомендую всім!


 Трекер:    Зареєстрований   

Завантажити / скачати фільм українською



відео для новачків



 Зареєстрований:   2019-11-12 18:01
 Розмір:   14.04 GB 
 Оцінка фільму:   9.6/10 (Голосів: 5)
   
Інші релізи
   Влада / Vice (2018) Remux 1080p Ukr/Eng | Sub Eng staf777  6 / 0   31.43 GB   2019-08-02 20:52 
   Влада / Vice (2018) Ukr/Eng antik_2008  17 / 0   2.36 GB   2019-08-02 10:03 
   Влада / Vice (2018) 1080p Ukr/Eng | Sub Eng antik_2008  8 / 0   18.39 GB   2019-08-02 09:33 
   Влада / Vice (2018) AVC Ukr/Eng | Sub Eng 11FrYkT  13 / 0   2.36 GB   2019-08-01 17:43 
   Влада / Vice (2018) 720p Ukr/Eng | Sub Eng 11FrYkT  13 / 0   4.32 GB   2019-08-01 17:29 
   Влада / Vice (2018) Electroz  17 / 5   1.67 GB   2019-04-18 15:29 
pintg 
Поважний учасник


З нами з: 14.04.16
Востаннє: 28.09.20
Повідомлень: 189

2019-11-13 00:27  
14.04 GB - непогано так затягнув. У вас же ріпи зазвичай рази у два легші. Ви зменшили параметри стиснення, чи тут просто така картинка, що погано стискається?
Anonymous 







2019-11-13 00:35  
pintg
картинка погано стискається, тому так. Кодував в crf 18, що видно з налаштувань кодування.

Ваш часовий пояс: GMT + 2 Години

Нова тема   Відповісти