Кінь БоДжек (Сезон 2, серії 1-8) / BoJack Horseman (Season 2, episodes 1-8) (2015) 1080p Ukr/Eng

Нові коментарі

Нова тема   Відповісти
Останній раз роздавалося simpsonsua (2019-11-15)
Автор Повідомлення
simpsonsua 
Свій


З нами з: 13.03.18
Востаннє: 15.11.19
Повідомлень: 144

2019-11-11 02:01  
AVC | 1080p

Кінь БоДжек (Сезон 2, серії 1-8) / BoJack Horseman (Season 2, episodes 1-8) (2015) 1080p Ukr/Eng


Кінь БоДжек (Сезон 2, серії 1-8) / BoJack Horseman (Season 2, episodes 1-8) (2015) 1080p Ukr/Eng


Жанр: сатира, трагікомедія, драма, фарс
Країна: США



Кінокомпанія / телеканал: Tornante Company, ShadowMachine, Netflix
Режисери/творці: Рафаель Боб-Ваксберґ
Актори: Вілл Арнетт, Емі Седаріс, Елісон Брі, Аарон Пол та інші.

Сюжет:
Дія відбувається в світі, населеному антропоморфними тваринами і людьми. Велика частина сюжету відбувається в Лос-Анджелесі. БоДжек — зірка ситуаційної комедії «Сім’Я на Коні», популярної наприкінці 80-х — початку 90-х років. На момент часу, висвітлений у серіалі, БоДжек переживає кризу середнього віку. У спробах повернути колишню популярність і любов публіки БоДжек намагається написати автобіографічну книгу. Але не справляється з цим через власну лінь. Після умовлянь агента і видавця БоДжек наймає письменницю Даєну Нґуєн, яка проводить з ним багато часу, інтерв'юючи його, дізнаючись про його минуле і роботу в серіалі.


Тривалість: 1 серія: ~ 24 хв. (цілком серій: 8/12)
Перелік серій:

01. Brand New Couch
02. Yesterdayland
03. Still Broken
04. After the Party
05. Chickens
06. Higher Love
07. Hank After Dark
08. Let's Find Out
09. The Shot
Якість: AVC
Відео:
кодек:
розмір кадру: 1920 x 1080
бітрейт: 4940 кб/с

Аудіо # 1:
мова: українська
озвучення: багатоголосе закадрове | "Kinomania"
кодек: 2.0
бітрейт: 192 кб/с

Аудіо # 2:
мова: англійська
переклад: оригінал
кодек: 5.1
бітрейт: 384 кб/с
Info
Код:
Format                      :
Format version              : Version 4
File size                   : 1 008 MiB
Duration                    : 26 min 28 s
Overall bit rate            : 5 325 kb/s
Encoded date                : UTC 2019-11-10 23:58:02
Writing application         : v6.8.0 ('Theme for Great Cities') 32bit built on Mar  2 2014 21:27:07
Writing library             : libebml v1.3.0 + v1.4.1

Video
ID                          : 1
Format                      : AVC
Format/Info                 : Advanced Video Codec
Format profile              : [email protected]
Format settings             : CABAC / 4 Ref Frames
Format settings, CABAC      : Yes
Format settings, Reference  : 4 frames
Codec ID                    : V_MPEG4/ISO/AVC
Duration                    : 26 min 28 s
Bit rate                    : 4 643 kb/s
Width                       : 1 920 pixels
Height                      : 1 080 pixels
Display aspect ratio        : 16:9
Frame rate mode             : Constant
Frame rate                  : 23.976 (24000/1001) FPS
Color space                 : YUV
Chroma subsampling          : 4:2:0
Bit depth                   : 8 bits
Scan type                   : Progressive
Bits/(Pixel*Frame)          : 0.093
Stream size                 : 879 MiB (87%)
Writing library             : core 148 r2638 7599210
Encoding settings           : cabac=1 / ref=4 / deblock=1:-3:-3 / analyse=0x3:0x133 / me=umh / subme=10 / psy=1 / psy_rd=1.00:0.00 / mixed_ref=1 / me_range=48 / chroma_me=1 / trellis=2 / 8x8dct=1 / cqm=0 / deadzone=21,11 / fast_pskip=1 / chroma_qp_offset=-2 / threads=12 / lookahead_threads=2 / sliced_threads=0 / nr=0 / decimate=0 / interlaced=0 / bluray_compat=0 / constrained_intra=0 / bframes=8 / b_pyramid=2 / b_adapt=2 / b_bias=0 / direct=3 / weightb=1 / open_gop=0 / weightp=2 / keyint=240 / keyint_min=23 / scenecut=40 / intra_refresh=0 / rc=crf / mbtree=0 / crf=16.0 / qcomp=0.60 / qpmin=0 / qpmax=69 / qpstep=4 / ip_ratio=1.30 / pb_ratio=1.20 / aq=3:0.70
Default                     : Yes
Forced                      : No

Audio #1
ID                          : 2
Format                      : AC-3
Format/Info                 : Audio Coding 3
Commercial name             : Dolby Digital
Codec ID                    : A_AC3
Duration                    : 26 min 28 s
Bit rate mode               : Constant
Bit rate                    : 192 kb/s
Channel(s)                  : 2 channels
Channel layout              : L R
Sampling rate               : 48.0 kHz
Frame rate                  : 31.250 FPS (1536 SPF)
Bit depth                   : 16 bits
Compression mode            : Lossy
Stream size                 : 36.4 MiB (4%)
Title                       : Українська
Language                    : Ukrainian
Service kind                : Complete Main
Default                     : Yes
Forced                      : No

Audio #2
ID                          : 3
Format                      : AC-3
Format/Info                 : Audio Coding 3
Commercial name             : Dolby Digital
Codec ID                    : A_AC3
Duration                    : 26 min 28 s
Bit rate mode               : Constant
Bit rate                    : 384 kb/s
Channel(s)                  : 6 channels
Channel layout              : L R C LFE Ls Rs
Sampling rate               : 48.0 kHz
Frame rate                  : 31.250 FPS (1536 SPF)
Bit depth                   : 16 bits
Compression mode            : Lossy
Stream size                 : 72.7 MiB (7%)
Language                    : English
Service kind                : Complete Main
Default                     : No
Forced                      : No
Скріншоти



Озвучено студією Kinomania на замовлення:



Авторський реліз (завантажувати можна без реєстрації)
 Трекер:    Зареєстрований   

Завантажити / скачати мультфільм українською



відео для новачків



 Зареєстрований:   2019-11-11 02:24
 Розмір:   8.2 GB 
 Оцінка мультсеріалу:   10/10 (Голосів: 3)
   
leicheman 
Відео Гуртом - фільмокрай
Відео Гуртом - фільмокрай


З нами з: 03.07.14
Востаннє: 15.11.19
Повідомлень: 4183

2019-11-11 10:23  
А що там з новим сезон? Буде аж після всіх сезонів?
simpsonsua 
Свій


З нами з: 13.03.18
Востаннє: 15.11.19
Повідомлень: 144

2019-11-11 10:29  
leicheman
Планували всі сезони озвучити. Незупиняй почали озвучення, тому треба почекати, можливо вони на 1-му сезоні і закінчать. Пропозиція гарна, ми її обдумаємо, можливо після 2-го сезону візьмемо одразу новий.

PuMa.ua 
VIP


З нами з: 29.08.08
Востаннє: 15.11.19
Повідомлень: 335

2019-11-11 11:02  
simpsonsua
не закінчать. https://toloka.to/t104732#1130003

та і замовили ви у лайно-студії "Кіноманія", тому таке. незрозуміло нашо, коли купа серіалів українською не має озвучення.

simpsonsua 
Свій


З нами з: 13.03.18
Востаннє: 15.11.19
Повідомлень: 144

2019-11-11 11:09  
PuMa.ua
Тоді дуже добре, що не закінчать! Ми заплатили за 2-й сезон, тому доозвучать його вже. Можливо, якість не дотягує до всім загальних норм, але це краще ніж нічого. Де ж Незупиняй були, коли ніхто не брався за цей мульт... Ми замовили ще до того, як його почали озвучувати інші студії.

Ваш часовий пояс: GMT + 2 Години

Нова тема   Відповісти